  0
SECTION
  2
HEADER
  9
$ACADVER
  1
AC1018
  9
$ACADMAINTVER
 70
   104
  9
$DWGCODEPAGE
  3
ANSI_932
  9
$LASTSAVEDBY
  1
サンリツ
  9
$INSBASE
 10
0.0
 20
0.0
 30
0.0
  9
$EXTMIN
 10
306.5228643624141
 20
-3071.235038429199
 30
-0.0015258207003583
  9
$EXTMAX
 10
702.111286891959
 20
-2818.480614979526
 30
0.0000000349246037
  9
$LIMMIN
 10
3368.694404760361
 20
675.0011323286697
  9
$LIMMAX
 10
3968.694404760361
 20
1536.001132328669
  9
$ORTHOMODE
 70
     1
  9
$REGENMODE
 70
     1
  9
$FILLMODE
 70
     1
  9
$QTEXTMODE
 70
     0
  9
$MIRRTEXT
 70
     0
  9
$LTSCALE
 40
1.0
  9
$ATTMODE
 70
     1
  9
$TEXTSIZE
 40
2.5
  9
$TRACEWID
 40
1.0
  9
$TEXTSTYLE
  7
KANJI
  9
$CLAYER
  8
gaikei
  9
$CELTYPE
  6
ByLayer
  9
$CECOLOR
 62
   256
  9
$CELTSCALE
 40
1.0
  9
$DISPSILH
 70
     0
  9
$DIMSCALE
 40
1.0
  9
$DIMASZ
 40
1.800000000000001
  9
$DIMEXO
 40
1.0
  9
$DIMDLI
 40
5.0
  9
$DIMRND
 40
0.0
  9
$DIMDLE
 40
0.0
  9
$DIMEXE
 40
0.0
  9
$DIMTP
 40
0.0
  9
$DIMTM
 40
0.0
  9
$DIMTXT
 40
2.5
  9
$DIMCEN
 40
0.0
  9
$DIMTSZ
 40
0.0
  9
$DIMTOL
 70
     0
  9
$DIMLIM
 70
     0
  9
$DIMTIH
 70
     0
  9
$DIMTOH
 70
     0
  9
$DIMSE1
 70
     0
  9
$DIMSE2
 70
     0
  9
$DIMTAD
 70
     1
  9
$DIMZIN
 70
     8
  9
$DIMBLK
  1

  9
$DIMASO
 70
     1
  9
$DIMSHO
 70
     1
  9
$DIMPOST
  1

  9
$DIMAPOST
  1

  9
$DIMALT
 70
     0
  9
$DIMALTD
 70
     3
  9
$DIMALTF
 40
0.03937007874016
  9
$DIMLFAC
 40
1.0
  9
$DIMTOFL
 70
     1
  9
$DIMTVP
 40
0.0
  9
$DIMTIX
 70
     0
  9
$DIMSOXD
 70
     0
  9
$DIMSAH
 70
     0
  9
$DIMBLK1
  1

  9
$DIMBLK2
  1

  9
$DIMSTYLE
  2
DIM
  9
$DIMCLRD
 70
     0
  9
$DIMCLRE
 70
     0
  9
$DIMCLRT
 70
     0
  9
$DIMTFAC
 40
1.0
  9
$DIMGAP
 40
0.3
  9
$DIMJUST
 70
     0
  9
$DIMSD1
 70
     0
  9
$DIMSD2
 70
     0
  9
$DIMTOLJ
 70
     0
  9
$DIMTZIN
 70
     8
  9
$DIMALTZ
 70
     0
  9
$DIMALTTZ
 70
     0
  9
$DIMUPT
 70
     0
  9
$DIMDEC
 70
     2
  9
$DIMTDEC
 70
     2
  9
$DIMALTU
 70
     2
  9
$DIMALTTD
 70
     3
  9
$DIMTXSTY
  7
DIM
  9
$DIMAUNIT
 70
     0
  9
$DIMADEC
 70
     4
  9
$DIMALTRND
 40
0.0
  9
$DIMAZIN
 70
     0
  9
$DIMDSEP
 70
    44
  9
$DIMATFIT
 70
     2
  9
$DIMFRAC
 70
     0
  9
$DIMLDRBLK
  1

  9
$DIMLUNIT
 70
     6
  9
$DIMLWD
 70
    -2
  9
$DIMLWE
 70
    -2
  9
$DIMTMOVE
 70
     2
  9
$LUNITS
 70
     2
  9
$LUPREC
 70
     2
  9
$SKETCHINC
 40
1.0
  9
$FILLETRAD
 40
0.0
  9
$AUNITS
 70
     0
  9
$AUPREC
 70
     2
  9
$MENU
  1
.
  9
$ELEVATION
 40
0.0
  9
$PELEVATION
 40
0.0
  9
$THICKNESS
 40
0.0
  9
$LIMCHECK
 70
     0
  9
$CHAMFERA
 40
0.0
  9
$CHAMFERB
 40
0.0
  9
$CHAMFERC
 40
0.0
  9
$CHAMFERD
 40
0.0
  9
$SKPOLY
 70
     0
  9
$TDCREATE
 40
2452951.453278530
  9
$TDUCREATE
 40
2452951.078278530
  9
$TDUPDATE
 40
2455581.461751481
  9
$TDUUPDATE
 40
2455581.086751482
  9
$TDINDWG
 40
9.3239581019
  9
$TDUSRTIMER
 40
9.3239579282
  9
$USRTIMER
 70
     1
  9
$ANGBASE
 50
0.0
  9
$ANGDIR
 70
     0
  9
$PDMODE
 70
     3
  9
$PDSIZE
 40
0.0
  9
$PLINEWID
 40
0.0
  9
$SPLFRAME
 70
     0
  9
$SPLINETYPE
 70
     6
  9
$SPLINESEGS
 70
     8
  9
$HANDSEED
  5
2DC29
  9
$SURFTAB1
 70
     6
  9
$SURFTAB2
 70
     6
  9
$SURFTYPE
 70
     6
  9
$SURFU
 70
     6
  9
$SURFV
 70
     6
  9
$UCSBASE
  2

  9
$UCSNAME
  2

  9
$UCSORG
 10
0.0
 20
0.0
 30
0.0
  9
$UCSXDIR
 10
1.0
 20
0.0
 30
0.0
  9
$UCSYDIR
 10
0.0
 20
1.0
 30
0.0
  9
$UCSORTHOREF
  2

  9
$UCSORTHOVIEW
 70
     0
  9
$UCSORGTOP
 10
0.0
 20
0.0
 30
0.0
  9
$UCSORGBOTTOM
 10
0.0
 20
0.0
 30
0.0
  9
$UCSORGLEFT
 10
0.0
 20
0.0
 30
0.0
  9
$UCSORGRIGHT
 10
0.0
 20
0.0
 30
0.0
  9
$UCSORGFRONT
 10
0.0
 20
0.0
 30
0.0
  9
$UCSORGBACK
 10
0.0
 20
0.0
 30
0.0
  9
$PUCSBASE
  2

  9
$PUCSNAME
  2

  9
$PUCSORG
 10
0.0
 20
0.0
 30
0.0
  9
$PUCSXDIR
 10
1.0
 20
0.0
 30
0.0
  9
$PUCSYDIR
 10
0.0
 20
1.0
 30
0.0
  9
$PUCSORTHOREF
  2

  9
$PUCSORTHOVIEW
 70
     0
  9
$PUCSORGTOP
 10
0.0
 20
0.0
 30
0.0
  9
$PUCSORGBOTTOM
 10
0.0
 20
0.0
 30
0.0
  9
$PUCSORGLEFT
 10
0.0
 20
0.0
 30
0.0
  9
$PUCSORGRIGHT
 10
0.0
 20
0.0
 30
0.0
  9
$PUCSORGFRONT
 10
0.0
 20
0.0
 30
0.0
  9
$PUCSORGBACK
 10
0.0
 20
0.0
 30
0.0
  9
$USERI1
 70
     0
  9
$USERI2
 70
     0
  9
$USERI3
 70
     0
  9
$USERI4
 70
     0
  9
$USERI5
 70
     0
  9
$USERR1
 40
0.0
  9
$USERR2
 40
0.0
  9
$USERR3
 40
0.0
  9
$USERR4
 40
0.0
  9
$USERR5
 40
0.0
  9
$WORLDVIEW
 70
     1
  9
$SHADEDGE
 70
     3
  9
$SHADEDIF
 70
    70
  9
$TILEMODE
 70
     1
  9
$MAXACTVP
 70
    64
  9
$PINSBASE
 10
0.0
 20
0.0
 30
0.0
  9
$PLIMCHECK
 70
     0
  9
$PEXTMIN
 10
26.66999878883363
 20
20.31999878883363
 30
0.0
  9
$PEXTMAX
 10
240.0299890995026
 20
182.8799890995025
 30
0.0
  9
$PLIMMIN
 10
-6.350006103515625
 20
-6.349999904632568
  9
$PLIMMAX
 10
273.0499877929688
 20
209.5499939918518
  9
$UNITMODE
 70
     0
  9
$VISRETAIN
 70
     1
  9
$PLINEGEN
 70
     0
  9
$PSLTSCALE
 70
     1
  9
$TREEDEPTH
 70
  3020
  9
$CMLSTYLE
  2
Standard
  9
$CMLJUST
 70
     0
  9
$CMLSCALE
 40
20.0
  9
$PROXYGRAPHICS
 70
     1
  9
$MEASUREMENT
 70
     1
  9
$CELWEIGHT
370
    -1
  9
$ENDCAPS
280
     0
  9
$JOINSTYLE
280
     0
  9
$LWDISPLAY
290
     1
  9
$INSUNITS
 70
     4
  9
$HYPERLINKBASE
  1

  9
$STYLESHEET
  1
monochrome.ctb
  9
$XEDIT
290
     1
  9
$CEPSNTYPE
380
     0
  9
$PSTYLEMODE
290
     1
  9
$FINGERPRINTGUID
  2
{FDEAD578-A652-11D2-9A35-0060089B3A3F}
  9
$VERSIONGUID
  2
{8B411583-E5A2-4524-931D-B1D073FAF5E6}
  9
$EXTNAMES
290
     1
  9
$PSVPSCALE
 40
0.0
  9
$OLESTARTUP
290
     0
  9
$SORTENTS
280
   127
  9
$INDEXCTL
280
     0
  9
$HIDETEXT
280
     1
  9
$XCLIPFRAME
290
     0
  9
$HALOGAP
280
     0
  9
$OBSCOLOR
 70
   257
  9
$OBSLTYPE
280
     0
  9
$INTERSECTIONDISPLAY
280
     0
  9
$INTERSECTIONCOLOR
 70
   257
  9
$DIMASSOC
280
     2
  9
$PROJECTNAME
  1

  0
ENDSEC
  0
SECTION
  2
CLASSES
  0
CLASS
  1
ACDBDICTIONARYWDFLT
  2
AcDbDictionaryWithDefault
  3
ObjectDBX Classes
 90
        0
 91
        1
280
     0
281
     0
  0
CLASS
  1
DICTIONARYVAR
  2
AcDbDictionaryVar
  3
ObjectDBX Classes
 90
        0
 91
        5
280
     0
281
     0
  0
CLASS
  1
DIMASSOC
  2
AcDbDimAssoc
  3
"AcDbDimAssoc|Product Desc:     AcDim ARX App For Dimension|Company:          Autodesk, Inc.|WEB Address:      www.autodesk.com"
 90
        0
 91
      415
280
     0
281
     0
  0
CLASS
  1
TABLESTYLE
  2
AcDbTableStyle
  3
ObjectDBX Classes
 90
     4095
 91
        1
280
     0
281
     0
  0
CLASS
  1
SORTENTSTABLE
  2
AcDbSortentsTable
  3
ObjectDBX Classes
 90
        0
 91
        2
280
     0
281
     0
  0
CLASS
  1
ACAD_EVALUATION_GRAPH
  2
AcDbEvalGraph
  3
ObjectDBX Classes
 90
     1153
 91
        0
280
     0
281
     0
  0
CLASS
  1
ACAECUSTOBJ
  2
AcAeEditorObj
  3
AcAeEditorObj
 90
     1024
 91
        0
280
     0
281
     0
  0
CLASS
  1
ACDB_DYNAMICBLOCKPURGEPREVENTER_VERSION
  2
AcDbDynamicBlockPurgePreventer
  3
ObjectDBX Classes
 90
     1153
 91
        0
280
     0
281
     0
  0
CLASS
  1
MATERIAL
  2
AcDbMaterial
  3
ObjectDBX Classes
 90
     1153
 91
        3
280
     0
281
     0
  0
CLASS
  1
VISUALSTYLE
  2
AcDbVisualStyle
  3
ObjectDBX Classes
 90
     4095
 91
       24
280
     0
281
     0
  0
CLASS
  1
SCALE
  2
AcDbScale
  3
ObjectDBX Classes
 90
     1153
 91
       17
280
     0
281
     0
  0
CLASS
  1
MLEADERSTYLE
  2
AcDbMLeaderStyle
  3
ACDB_MLEADERSTYLE_CLASS
 90
     4095
 91
        1
280
     0
281
     0
  0
CLASS
  1
CELLSTYLEMAP
  2
AcDbCellStyleMap
  3
ObjectDBX Classes
 90
     1152
 91
        2
280
     0
281
     0
  0
ENDSEC
  0
SECTION
  2
TABLES
  0
TABLE
  2
VPORT
  5
8
330
0
100
AcDbSymbolTable
 70
     1
  0
VPORT
  5
2DAFB
330
8
100
AcDbSymbolTableRecord
100
AcDbViewportTableRecord
  2
*Active
 70
     0
 10
0.0
 20
0.0
 11
1.0
 21
1.0
 12
504.3170756271866
 22
-2944.857826704362
 13
0.0
 23
0.0
 14
10.0
 24
10.0
 15
10.0
 25
10.0
 16
0.0
 26
0.0
 36
1.0
 17
0.0
 27
0.0
 37
0.0
 40
254.8177248655884
 41
2.143051771117166
 42
50.0
 43
0.0
 44
0.0
 50
0.0
 51
0.0
 71
     0
 72
  1000
 73
     1
 74
     3
 75
     0
 76
     0
 77
     0
 78
     0
281
     0
 65
     1
110
0.0
120
0.0
130
0.0
111
1.0
121
0.0
131
0.0
112
0.0
122
1.0
132
0.0
 79
     0
146
0.0
  0
ENDTAB
  0
TABLE
  2
LTYPE
  5
5
330
0
100
AcDbSymbolTable
 70
    14
  0
LTYPE
  5
14
330
5
100
AcDbSymbolTableRecord
100
AcDbLinetypeTableRecord
  2
ByBlock
 70
     0
  3

 72
    65
 73
     0
 40
0.0
  0
LTYPE
  5
15
330
5
100
AcDbSymbolTableRecord
100
AcDbLinetypeTableRecord
  2
ByLayer
 70
     0
  3

 72
    65
 73
     0
 40
0.0
  0
LTYPE
  5
16
330
5
100
AcDbSymbolTableRecord
100
AcDbLinetypeTableRecord
  2
Continuous
 70
     0
  3
Solid line
 72
    65
 73
     0
 40
0.0
  0
LTYPE
  5
89
330
5
100
AcDbSymbolTableRecord
100
AcDbLinetypeTableRecord
  2
ACAD_ISO04W100
 70
     0
  3
ISO long-dash dot ____ . ____ . ____ . ____ . _
 72
    65
 73
     4
 40
30.0
 49
24.0
 74
     0
 49
-3.0
 74
     0
 49
0.0
 74
     0
 49
-3.0
 74
     0
  0
LTYPE
  5
4DA
330
5
100
AcDbSymbolTableRecord
100
AcDbLinetypeTableRecord
  2
HIDDEN2
 70
     0
  3
Hidden (.5x) _ _ _ _ _ _ _ _ _ _ _ _ _ _ _ _ _
 72
    65
 73
     2
 40
4.762499999999999
 49
3.174999999999999
 74
     0
 49
-1.587499999999999
 74
     0
  0
ENDTAB
  0
TABLE
  2
LAYER
  5
2
102
{ACAD_XDICTIONARY
360
42D6
102
}
330
0
100
AcDbSymbolTable
 70
    15
  0
LAYER
  5
10
330
2
100
AcDbSymbolTableRecord
100
AcDbLayerTableRecord
  2
0
 70
     0
 62
     7
  6
Continuous
370
    20
390
F
  0
LAYER
  5
8D
330
2
100
AcDbSymbolTableRecord
100
AcDbLayerTableRecord
  2
kijun
 70
     0
 62
     1
  6
ACAD_ISO04W100
370
     9
390
F
  0
LAYER
  5
8E
330
2
100
AcDbSymbolTableRecord
100
AcDbLayerTableRecord
  2
sunpo
 70
     0
 62
     4
  6
Continuous
370
    20
390
F
  0
LAYER
  5
A2
330
2
100
AcDbSymbolTableRecord
100
AcDbLayerTableRecord
  2
hasen
 70
     0
 62
     2
  6
HIDDEN2
370
    20
390
F
  0
LAYER
  5
D4
330
2
100
AcDbSymbolTableRecord
100
AcDbLayerTableRecord
  2
Defpoints
 70
     0
 62
   252
  6
Continuous
290
     0
370
    -3
390
F
  0
LAYER
  5
6B3
330
2
100
AcDbSymbolTableRecord
100
AcDbLayerTableRecord
  2
hatch
 70
     0
 62
     6
  6
Continuous
370
     9
390
F
  0
LAYER
  5
6B4
330
2
100
AcDbSymbolTableRecord
100
AcDbLayerTableRecord
  2
futosen
 70
     0
 62
     7
  6
Continuous
370
    35
390
F
  0
LAYER
  5
702
330
2
100
AcDbSymbolTableRecord
100
AcDbLayerTableRecord
  2
gaikei
 70
     0
 62
     7
  6
Continuous
370
    25
390
F
  0
ENDTAB
  0
TABLE
  2
STYLE
  5
3
330
0
100
AcDbSymbolTable
 70
     8
  0
STYLE
  5
11
330
3
100
AcDbSymbolTableRecord
100
AcDbTextStyleTableRecord
  2
Standard
 70
     0
 40
0.0
 41
1.0
 50
0.0
 71
     0
 42
2.5
  3
txt.shx
  4
bigfont.shx
  0
STYLE
  5
6B7
330
3
100
AcDbSymbolTableRecord
100
AcDbTextStyleTableRecord
  2
KANJI
 70
     0
 40
0.0
 41
1.0
 50
0.0
 71
     0
 42
2.5
  3
romans.shx
  4
extfont.shx
  0
STYLE
  5
6BA
330
3
100
AcDbSymbolTableRecord
100
AcDbTextStyleTableRecord
  2
DIM
 70
     0
 40
0.0
 41
0.75
 50
0.0
 71
     0
 42
2.5
  3
romans.shx
  4
extfont.shx
  0
STYLE
  5
142E3
330
3
100
AcDbSymbolTableRecord
100
AcDbTextStyleTableRecord
  2
ｺﾞｼｯｸ
 70
     0
 40
0.0
 41
0.75
 50
0.0
 71
     0
 42
2.5
  3
MS PGothic.ttf
  4

1001
ACAD
1000
MS PGothic
1071
    32818
  0
ENDTAB
  0
TABLE
  2
VIEW
  5
6
330
0
100
AcDbSymbolTable
 70
     1
  0
ENDTAB
  0
TABLE
  2
UCS
  5
7
330
0
100
AcDbSymbolTable
 70
     0
  0
ENDTAB
  0
TABLE
  2
APPID
  5
9
330
0
100
AcDbSymbolTable
 70
    17
  0
APPID
  5
12
330
9
100
AcDbSymbolTableRecord
100
AcDbRegAppTableRecord
  2
ACAD
 70
     0
  0
APPID
  5
1958
330
9
100
AcDbSymbolTableRecord
100
AcDbRegAppTableRecord
  2
ACAD_EXEMPT_FROM_CAD_STANDARDS
 70
     0
  0
APPID
  5
1DD4
330
9
100
AcDbSymbolTableRecord
100
AcDbRegAppTableRecord
  2
ACAD_DSTYLE_DIMTEXT_FILL
 70
     0
  0
APPID
  5
1DD5
330
9
100
AcDbSymbolTableRecord
100
AcDbRegAppTableRecord
  2
ACAD_DSTYLE_DIMEXT_LENGTH
 70
     0
  0
APPID
  5
1DD6
330
9
100
AcDbSymbolTableRecord
100
AcDbRegAppTableRecord
  2
ACAD_DSTYLE_DIMEXT_ENABLED
 70
     0
  0
APPID
  5
1DD7
330
9
100
AcDbSymbolTableRecord
100
AcDbRegAppTableRecord
  2
ACAD_DSTYLE_DIM_LINETYPE
 70
     0
  0
APPID
  5
1DD8
330
9
100
AcDbSymbolTableRecord
100
AcDbRegAppTableRecord
  2
ACAD_DSTYLE_DIM_EXT1_LINETYPE
 70
     0
  0
APPID
  5
1DD9
330
9
100
AcDbSymbolTableRecord
100
AcDbRegAppTableRecord
  2
ACAD_DSTYLE_DIM_EXT2_LINETYPE
 70
     0
  0
APPID
  5
1E95
330
9
100
AcDbSymbolTableRecord
100
AcDbRegAppTableRecord
  2
ACAD_DSTYLE_DIMJOGGED_JOGANGLE_SYMBOL
 70
     0
  0
APPID
  5
1EF9
330
9
100
AcDbSymbolTableRecord
100
AcDbRegAppTableRecord
  2
ACAD_DSTYLE_DIMARC_LENGTH_SYMBOL
 70
     0
  0
APPID
  5
30F5
330
9
100
AcDbSymbolTableRecord
100
AcDbRegAppTableRecord
  2
DCO15
 70
     0
  0
APPID
  5
345C
330
9
100
AcDbSymbolTableRecord
100
AcDbRegAppTableRecord
  2
ACAD_PSEXT
 70
     0
  0
APPID
  5
142E7
330
9
100
AcDbSymbolTableRecord
100
AcDbRegAppTableRecord
  2
AcDbBlockRepETag
 70
     0
  0
APPID
  5
21524
330
9
100
AcDbSymbolTableRecord
100
AcDbRegAppTableRecord
  2
ACAUTHENVIRON
 70
     0
  0
APPID
  5
21528
330
9
100
AcDbSymbolTableRecord
100
AcDbRegAppTableRecord
  2
AcDbDynamicBlockTrueName
 70
     0
  0
APPID
  5
21529
330
9
100
AcDbSymbolTableRecord
100
AcDbRegAppTableRecord
  2
AcDbDynamicBlockGUID
 70
     0
  0
APPID
  5
2DC28
330
9
100
AcDbSymbolTableRecord
100
AcDbRegAppTableRecord
  2
ACAD_MLEADERVER
 70
     0
  0
ENDTAB
  0
TABLE
  2
DIMSTYLE
  5
A
330
0
100
AcDbSymbolTable
 70
    16
100
AcDbDimStyleTable
 71
     1
340
9263
  0
DIMSTYLE
105
1A90
330
A
100
AcDbSymbolTableRecord
100
AcDbDimStyleTableRecord
  2
Standard
 70
     0
340
11
  0
DIMSTYLE
105
9263
102
{ACAD_REACTORS
330
17D7F
330
18289
330
1A18E
330
1A5F6
330
1C570
330
1EFB1
330
25B84
330
2BA1C
330
2BA04
330
2B9EC
330
2D494
330
2D4AC
330
2D4DC
330
2D50F
330
2D4C4
330
2D54B
330
2D558
330
2D570
330
2D588
330
2D5C4
330
2D5DC
330
2D5F4
330
2D60C
330
2D63F
330
2D67C
330
2DAA5
102
}
330
A
100
AcDbSymbolTableRecord
100
AcDbDimStyleTableRecord
  2
DIM
 70
     0
 41
1.800000000000001
 42
1.0
 43
5.0
 44
0.0
 73
     0
 74
     0
 77
     1
 78
     8
140
2.5
141
0.0
143
0.03937007874016
147
0.3
171
     3
172
     1
179
     4
271
     2
272
     2
274
     3
277
     6
278
    44
279
     2
283
     0
284
     8
289
     2
340
6BA
1001
ACAD_DSTYLE_DIMEXT_LENGTH
1070
   378
1040
0.0
1001
ACAD_DSTYLE_DIMJOGGED_JOGANGLE_SYMBOL
1070
   384
1040
1.570796326794896
  0
ENDTAB
  0
TABLE
  2
BLOCK_RECORD
  5
1
330
0
100
AcDbSymbolTable
 70
   916
  0
BLOCK_RECORD
  5
1F
102
{ACAD_XDICTIONARY
360
1980
102
}
330
1
100
AcDbSymbolTableRecord
100
AcDbBlockTableRecord
  2
*Model_Space
340
22
  0
BLOCK_RECORD
  5
50
330
1
100
AcDbSymbolTableRecord
100
AcDbBlockTableRecord
  2
*Paper_Space
340
51
  0
BLOCK_RECORD
  5
55
330
1
100
AcDbSymbolTableRecord
100
AcDbBlockTableRecord
  2
*Paper_Space0
340
56
  0
BLOCK_RECORD
  5
2B9ED
330
1
100
AcDbSymbolTableRecord
100
AcDbBlockTableRecord
  2
*D885
340
0
  0
BLOCK_RECORD
  5
2BA05
330
1
100
AcDbSymbolTableRecord
100
AcDbBlockTableRecord
  2
*D886
340
0
  0
BLOCK_RECORD
  5
2BA1D
330
1
100
AcDbSymbolTableRecord
100
AcDbBlockTableRecord
  2
*D887
340
0
  0
BLOCK_RECORD
  5
2D495
330
1
100
AcDbSymbolTableRecord
100
AcDbBlockTableRecord
  2
*D889
340
0
  0
BLOCK_RECORD
  5
2D4AD
330
1
100
AcDbSymbolTableRecord
100
AcDbBlockTableRecord
  2
*D890
340
0
  0
BLOCK_RECORD
  5
2D4C5
330
1
100
AcDbSymbolTableRecord
100
AcDbBlockTableRecord
  2
*D891
340
0
  0
BLOCK_RECORD
  5
2D4DD
330
1
100
AcDbSymbolTableRecord
100
AcDbBlockTableRecord
  2
*D892
340
0
  0
BLOCK_RECORD
  5
2D510
330
1
100
AcDbSymbolTableRecord
100
AcDbBlockTableRecord
  2
*D893
340
0
  0
BLOCK_RECORD
  5
2D54C
330
1
100
AcDbSymbolTableRecord
100
AcDbBlockTableRecord
  2
*D894
340
0
  0
BLOCK_RECORD
  5
2D559
330
1
100
AcDbSymbolTableRecord
100
AcDbBlockTableRecord
  2
*D895
340
0
  0
BLOCK_RECORD
  5
2D571
330
1
100
AcDbSymbolTableRecord
100
AcDbBlockTableRecord
  2
*D896
340
0
  0
BLOCK_RECORD
  5
2D589
330
1
100
AcDbSymbolTableRecord
100
AcDbBlockTableRecord
  2
*D897
340
0
  0
BLOCK_RECORD
  5
2D5C5
330
1
100
AcDbSymbolTableRecord
100
AcDbBlockTableRecord
  2
*D898
340
0
  0
BLOCK_RECORD
  5
2D5DD
330
1
100
AcDbSymbolTableRecord
100
AcDbBlockTableRecord
  2
*D899
340
0
  0
BLOCK_RECORD
  5
2D5F5
330
1
100
AcDbSymbolTableRecord
100
AcDbBlockTableRecord
  2
*D900
340
0
  0
BLOCK_RECORD
  5
2D60D
330
1
100
AcDbSymbolTableRecord
100
AcDbBlockTableRecord
  2
*D901
340
0
  0
BLOCK_RECORD
  5
2D640
330
1
100
AcDbSymbolTableRecord
100
AcDbBlockTableRecord
  2
*D902
340
0
  0
BLOCK_RECORD
  5
2D67D
330
1
100
AcDbSymbolTableRecord
100
AcDbBlockTableRecord
  2
*D903
340
0
  0
ENDTAB
  0
ENDSEC
  0
SECTION
  2
BLOCKS
  0
BLOCK
  5
20
330
1F
100
AcDbEntity
  8
0
100
AcDbBlockBegin
  2
*Model_Space
 70
     0
 10
0.0
 20
0.0
 30
0.0
  3
*Model_Space
  1

  0
ENDBLK
  5
21
330
1F
100
AcDbEntity
  8
0
100
AcDbBlockEnd
  0
BLOCK
  5
52
330
50
100
AcDbEntity
 67
     1
  8
0
100
AcDbBlockBegin
  2
*Paper_Space
 70
     0
 10
0.0
 20
0.0
 30
0.0
  3
*Paper_Space
  1

  0
ENDBLK
  5
53
330
50
100
AcDbEntity
 67
     1
  8
0
100
AcDbBlockEnd
  0
BLOCK
  5
57
330
55
100
AcDbEntity
 67
     1
  8
0
100
AcDbBlockBegin
  2
*Paper_Space0
 70
     0
 10
0.0
 20
0.0
 30
0.0
  3
*Paper_Space0
  1

  0
ENDBLK
  5
58
330
55
100
AcDbEntity
 67
     1
  8
0
100
AcDbBlockEnd
  0
BLOCK
  5
2B9F7
330
2B9ED
100
AcDbEntity
  8
0
100
AcDbBlockBegin
  2
*D885
 70
     1
 10
0.0
 20
0.0
 30
0.0
  3
*D885
  1

  0
LINE
  5
2D45B
330
2B9ED
100
AcDbEntity
  8
sunpo
 62
     0
440
 16777216
370
    -2
100
AcDbLine
 10
601.3740180247585
 20
-3047.505854346985
 30
0.0
 11
563.6013688402272
 21
-3047.505854346985
 31
0.0
  0
LINE
  5
2D45C
330
2B9ED
100
AcDbEntity
  8
sunpo
 62
     0
440
 16777216
370
    -2
100
AcDbLine
 10
601.3740180247585
 20
-2867.50585434696
 30
0.0
 11
563.6013688402272
 21
-2867.50585434696
 31
0.0
  0
LINE
  5
2D45D
330
2B9ED
100
AcDbEntity
  8
sunpo
 62
     0
440
 16777216
370
    -2
100
AcDbLine
 10
563.6013688402272
 20
-3045.705854346985
 30
0.0
 11
563.6013688402272
 21
-2869.30585434696
 31
0.0
  0
SOLID
  5
2D45E
330
2B9ED
100
AcDbEntity
  8
sunpo
 62
     0
440
 16777216
100
AcDbTrace
 10
563.3013688402273
 20
-3045.705854346985
 30
0.0
 11
563.9013688402271
 21
-3045.705854346985
 31
0.0
 12
563.6013688402272
 22
-3047.505854346985
 32
0.0
 13
563.6013688402272
 23
-3047.505854346985
 33
0.0
  0
SOLID
  5
2D45F
330
2B9ED
100
AcDbEntity
  8
sunpo
 62
     0
440
 16777216
100
AcDbTrace
 10
563.3013688402273
 20
-2869.30585434696
 30
0.0
 11
563.9013688402271
 21
-2869.30585434696
 31
0.0
 12
563.6013688402272
 22
-2867.50585434696
 32
0.0
 13
563.6013688402272
 23
-2867.50585434696
 33
0.0
  0
MTEXT
  5
2D460
330
2B9ED
100
AcDbEntity
  8
sunpo
 62
     0
440
 16777216
100
AcDbMText
 10
562.0513688402277
 20
-2957.505854346972
 30
0.0
 40
2.5
 41
0.0
 71
     5
 72
     1
  1
\U+03C6180
  7
DIM
 11
0.0000000000000001
 21
1.0
 31
0.0
 73
     1
 44
1.0
  0
POINT
  5
2D461
330
2B9ED
100
AcDbEntity
  8
Defpoints
 62
     0
440
 16777216
100
AcDbPoint
 10
602.3740180247584
 20
-3047.505854346985
 30
0.0
  0
POINT
  5
2D462
330
2B9ED
100
AcDbEntity
  8
Defpoints
 62
     0
440
 16777216
100
AcDbPoint
 10
602.3740180247584
 20
-2867.50585434696
 30
0.0
  0
POINT
  5
2D463
330
2B9ED
100
AcDbEntity
  8
Defpoints
 62
     0
440
 16777216
100
AcDbPoint
 10
563.6013688402272
 20
-2867.50585434696
 30
0.0
  0
ENDBLK
  5
2B9F8
330
2B9ED
100
AcDbEntity
  8
0
100
AcDbBlockEnd
  0
BLOCK
  5
2BA0F
330
2BA05
100
AcDbEntity
  8
0
100
AcDbBlockBegin
  2
*D886
 70
     1
 10
0.0
 20
0.0
 30
0.0
  3
*D886
  1

  0
LINE
  5
2D452
330
2BA05
100
AcDbEntity
  8
sunpo
 62
     0
440
 16777216
370
    -2
100
AcDbLine
 10
601.3740180247585
 20
-2872.005854346966
 30
0.0
 11
570.4831716863554
 21
-2872.005854346966
 31
0.0
  0
LINE
  5
2D453
330
2BA05
100
AcDbEntity
  8
sunpo
 62
     0
440
 16777216
370
    -2
100
AcDbLine
 10
601.3740180247582
 20
-3043.005854346979
 30
0.0
 11
570.4831716863554
 21
-3043.005854346979
 31
0.0
  0
LINE
  5
2D454
330
2BA05
100
AcDbEntity
  8
sunpo
 62
     0
440
 16777216
370
    -2
100
AcDbLine
 10
570.4831716863554
 20
-2873.805854346966
 30
0.0
 11
570.4831716863554
 21
-3041.205854346979
 31
0.0
  0
SOLID
  5
2D455
330
2BA05
100
AcDbEntity
  8
sunpo
 62
     0
440
 16777216
100
AcDbTrace
 10
570.1831716863555
 20
-2873.805854346966
 30
0.0
 11
570.7831716863554
 21
-2873.805854346966
 31
0.0
 12
570.4831716863554
 22
-2872.005854346966
 32
0.0
 13
570.4831716863554
 23
-2872.005854346966
 33
0.0
  0
SOLID
  5
2D456
330
2BA05
100
AcDbEntity
  8
sunpo
 62
     0
440
 16777216
100
AcDbTrace
 10
570.1831716863555
 20
-3041.205854346979
 30
0.0
 11
570.7831716863554
 21
-3041.205854346979
 31
0.0
 12
570.4831716863554
 22
-3043.005854346979
 32
0.0
 13
570.4831716863554
 23
-3043.005854346979
 33
0.0
  0
MTEXT
  5
2D457
330
2BA05
100
AcDbEntity
  8
sunpo
 62
     0
440
 16777216
100
AcDbMText
 10
568.9331716863559
 20
-2957.505854346972
 30
0.0
 40
2.5
 41
0.0
 71
     5
 72
     1
  1
\U+03C6171
  7
DIM
 11
0.0000000000000001
 21
1.0
 31
0.0
 73
     1
 44
1.0
  0
POINT
  5
2D458
330
2BA05
100
AcDbEntity
  8
Defpoints
 62
     0
440
 16777216
100
AcDbPoint
 10
602.3740180247584
 20
-2872.005854346966
 30
0.0
  0
POINT
  5
2D459
330
2BA05
100
AcDbEntity
  8
Defpoints
 62
     0
440
 16777216
100
AcDbPoint
 10
602.3740180247582
 20
-3043.005854346979
 30
0.0
  0
POINT
  5
2D45A
330
2BA05
100
AcDbEntity
  8
Defpoints
 62
     0
440
 16777216
100
AcDbPoint
 10
570.4831716863554
 20
-3043.005854346979
 30
0.0
  0
ENDBLK
  5
2BA10
330
2BA05
100
AcDbEntity
  8
0
100
AcDbBlockEnd
  0
BLOCK
  5
2BA27
330
2BA1D
100
AcDbEntity
  8
0
100
AcDbBlockBegin
  2
*D887
 70
     1
 10
0.0
 20
0.0
 30
0.0
  3
*D887
  1

  0
LINE
  5
2D657
330
2BA1D
100
AcDbEntity
  8
sunpo
 62
     0
440
 16777216
370
    -2
100
AcDbLine
 10
663.3740180247582
 20
-2862.505854346965
 30
0.0
 11
692.1712019581973
 21
-2862.505854346965
 31
0.0
  0
LINE
  5
2D658
330
2BA1D
100
AcDbEntity
  8
sunpo
 62
     0
440
 16777216
370
    -2
100
AcDbLine
 10
663.3740180247582
 20
-3052.505854346977
 30
0.0
 11
692.1712019581973
 21
-3052.505854346977
 31
0.0
  0
LINE
  5
2D659
330
2BA1D
100
AcDbEntity
  8
sunpo
 62
     0
440
 16777216
370
    -2
100
AcDbLine
 10
692.1712019581973
 20
-2864.305854346966
 30
0.0
 11
692.1712019581973
 21
-3050.705854346976
 31
0.0
  0
SOLID
  5
2D65A
330
2BA1D
100
AcDbEntity
  8
sunpo
 62
     0
440
 16777216
100
AcDbTrace
 10
691.8712019581974
 20
-2864.305854346966
 30
0.0
 11
692.4712019581972
 21
-2864.305854346966
 31
0.0
 12
692.1712019581973
 22
-2862.505854346965
 32
0.0
 13
692.1712019581973
 23
-2862.505854346965
 33
0.0
  0
SOLID
  5
2D65B
330
2BA1D
100
AcDbEntity
  8
sunpo
 62
     0
440
 16777216
100
AcDbTrace
 10
691.8712019581974
 20
-3050.705854346976
 30
0.0
 11
692.4712019581972
 21
-3050.705854346976
 31
0.0
 12
692.1712019581973
 22
-3052.505854346977
 32
0.0
 13
692.1712019581973
 23
-3052.505854346977
 33
0.0
  0
MTEXT
  5
2D65C
330
2BA1D
100
AcDbEntity
  8
sunpo
 62
     0
440
 16777216
100
AcDbMText
 10
690.6212019581978
 20
-2957.505854346971
 30
0.0
 40
2.5
 41
0.0
 71
     5
 72
     1
  1
\U+03C6190
  7
DIM
 11
0.0000000000000001
 21
1.0
 31
0.0
 73
     1
 44
1.0
  0
POINT
  5
2D65D
330
2BA1D
100
AcDbEntity
  8
Defpoints
 62
     0
440
 16777216
100
AcDbPoint
 10
662.3740180247582
 20
-2862.505854346965
 30
0.0
  0
POINT
  5
2D65E
330
2BA1D
100
AcDbEntity
  8
Defpoints
 62
     0
440
 16777216
100
AcDbPoint
 10
662.3740180247582
 20
-3052.505854346977
 30
0.0
  0
POINT
  5
2D65F
330
2BA1D
100
AcDbEntity
  8
Defpoints
 62
     0
440
 16777216
100
AcDbPoint
 10
692.1712019581973
 20
-3052.505854346977
 30
0.0
  0
ENDBLK
  5
2BA28
330
2BA1D
100
AcDbEntity
  8
0
100
AcDbBlockEnd
  0
BLOCK
  5
2D49F
330
2D495
100
AcDbEntity
  8
0
100
AcDbBlockBegin
  2
*D889
 70
     1
 10
0.0
 20
0.0
 30
0.0
  3
*D889
  1

  0
LINE
  5
2DB94
330
2D495
100
AcDbEntity
  8
sunpo
 62
     0
440
 16777216
370
    -2
100
AcDbLine
 10
399.2285331297344
 20
-3022.505854346973
 30
0.0
 11
371.6775066415466
 21
-3022.505854346973
 31
0.0
  0
LINE
  5
2DB95
330
2D495
100
AcDbEntity
  8
sunpo
 62
     0
440
 16777216
370
    -2
100
AcDbLine
 10
399.2285331297346
 20
-2892.505854346966
 30
0.0
 11
371.6775066415467
 21
-2892.505854346966
 31
0.0
  0
LINE
  5
2DB96
330
2D495
100
AcDbEntity
  8
sunpo
 62
     0
440
 16777216
370
    -2
100
AcDbLine
 10
371.6775066415466
 20
-3020.705854346973
 30
0.0
 11
371.6775066415467
 21
-2894.305854346966
 31
0.0
  0
SOLID
  5
2DB97
330
2D495
100
AcDbEntity
  8
sunpo
 62
     0
440
 16777216
100
AcDbTrace
 10
371.3775066415466
 20
-3020.705854346973
 30
0.0
 11
371.9775066415466
 21
-3020.705854346973
 31
0.0
 12
371.6775066415466
 22
-3022.505854346973
 32
0.0
 13
371.6775066415466
 23
-3022.505854346973
 33
0.0
  0
SOLID
  5
2DB98
330
2D495
100
AcDbEntity
  8
sunpo
 62
     0
440
 16777216
100
AcDbTrace
 10
371.3775066415466
 20
-2894.305854346966
 30
0.0
 11
371.9775066415467
 21
-2894.305854346966
 31
0.0
 12
371.6775066415467
 22
-2892.505854346966
 32
0.0
 13
371.6775066415467
 23
-2892.505854346966
 33
0.0
  0
MTEXT
  5
2DB99
330
2D495
100
AcDbEntity
  8
sunpo
 62
     0
440
 16777216
100
AcDbMText
 10
370.1275066415471
 20
-2957.505854346969
 30
0.0
 40
2.5
 41
0.0
 71
     5
 72
     1
  1
130
  7
DIM
 11
0.0000000000000001
 21
1.0
 31
0.0
 73
     1
 44
1.0
  0
POINT
  5
2DB9A
330
2D495
100
AcDbEntity
  8
Defpoints
 62
     0
440
 16777216
100
AcDbPoint
 10
400.2285331297343
 20
-3022.505854346973
 30
0.0
  0
POINT
  5
2DB9B
330
2D495
100
AcDbEntity
  8
Defpoints
 62
     0
440
 16777216
100
AcDbPoint
 10
400.2285331297346
 20
-2892.505854346966
 30
0.0
  0
POINT
  5
2DB9C
330
2D495
100
AcDbEntity
  8
Defpoints
 62
     0
440
 16777216
100
AcDbPoint
 10
371.6775066415467
 20
-2892.505854346966
 30
0.0
  0
ENDBLK
  5
2D4A0
330
2D495
100
AcDbEntity
  8
0
100
AcDbBlockEnd
  0
BLOCK
  5
2D4B7
330
2D4AD
100
AcDbEntity
  8
0
100
AcDbBlockBegin
  2
*D890
 70
     1
 10
0.0
 20
0.0
 30
0.0
  3
*D890
  1

  0
LINE
  5
2DB9D
330
2D4AD
100
AcDbEntity
  8
sunpo
 62
     0
440
 16777216
370
    -2
100
AcDbLine
 10
399.2285331297344
 20
-2897.505854346972
 30
0.0
 11
380.9773154670475
 21
-2897.505854346972
 31
0.0
  0
LINE
  5
2DB9E
330
2D4AD
100
AcDbEntity
  8
sunpo
 62
     0
440
 16777216
370
    -2
100
AcDbLine
 10
399.2285331297344
 20
-3017.505854346973
 30
0.0
 11
380.9773154670475
 21
-3017.505854346973
 31
0.0
  0
LINE
  5
2DB9F
330
2D4AD
100
AcDbEntity
  8
sunpo
 62
     0
440
 16777216
370
    -2
100
AcDbLine
 10
380.9773154670475
 20
-2899.305854346973
 30
0.0
 11
380.9773154670475
 21
-3015.705854346972
 31
0.0
  0
SOLID
  5
2DBA0
330
2D4AD
100
AcDbEntity
  8
sunpo
 62
     0
440
 16777216
100
AcDbTrace
 10
380.6773154670475
 20
-2899.305854346973
 30
0.0
 11
381.2773154670475
 21
-2899.305854346973
 31
0.0
 12
380.9773154670475
 22
-2897.505854346972
 32
0.0
 13
380.9773154670475
 23
-2897.505854346972
 33
0.0
  0
SOLID
  5
2DBA1
330
2D4AD
100
AcDbEntity
  8
sunpo
 62
     0
440
 16777216
100
AcDbTrace
 10
380.6773154670474
 20
-3015.705854346972
 30
0.0
 11
381.2773154670475
 21
-3015.705854346972
 31
0.0
 12
380.9773154670475
 22
-3017.505854346973
 32
0.0
 13
380.9773154670475
 23
-3017.505854346973
 33
0.0
  0
MTEXT
  5
2DBA2
330
2D4AD
100
AcDbEntity
  8
sunpo
 62
     0
440
 16777216
100
AcDbMText
 10
379.4273154670479
 20
-2957.505854346972
 30
0.0
 40
2.5
 41
0.0
 71
     5
 72
     1
  1
120
  7
DIM
 11
0.0000000000000001
 21
1.0
 31
0.0
 73
     1
 44
1.0
  0
POINT
  5
2DBA3
330
2D4AD
100
AcDbEntity
  8
Defpoints
 62
     0
440
 16777216
100
AcDbPoint
 10
400.2285331297343
 20
-2897.505854346972
 30
0.0
  0
POINT
  5
2DBA4
330
2D4AD
100
AcDbEntity
  8
Defpoints
 62
     0
440
 16777216
100
AcDbPoint
 10
400.2285331297343
 20
-3017.505854346973
 30
0.0
  0
POINT
  5
2DBA5
330
2D4AD
100
AcDbEntity
  8
Defpoints
 62
     0
440
 16777216
100
AcDbPoint
 10
380.9773154670475
 20
-3017.505854346973
 30
0.0
  0
ENDBLK
  5
2D4B8
330
2D4AD
100
AcDbEntity
  8
0
100
AcDbBlockEnd
  0
BLOCK
  5
2D4CF
330
2D4C5
100
AcDbEntity
  8
0
100
AcDbBlockBegin
  2
*D891
 70
     1
 10
0.0
 20
0.0
 30
0.0
  3
*D891
  1

  0
LINE
  5
2DBA6
330
2D4C5
100
AcDbEntity
  8
sunpo
 62
     0
440
 16777216
370
    -2
100
AcDbLine
 10
461.2285331297344
 20
-2887.505854346971
 30
0.0
 11
491.2032236281084
 21
-2887.505854346971
 31
0.0
  0
LINE
  5
2DBA7
330
2D4C5
100
AcDbEntity
  8
sunpo
 62
     0
440
 16777216
370
    -2
100
AcDbLine
 10
461.2285331297344
 20
-3027.505854346982
 30
0.0
 11
491.2032236281084
 21
-3027.505854346982
 31
0.0
  0
LINE
  5
2DBA8
330
2D4C5
100
AcDbEntity
  8
sunpo
 62
     0
440
 16777216
370
    -2
100
AcDbLine
 10
491.2032236281084
 20
-2889.305854346972
 30
0.0
 11
491.2032236281084
 21
-3025.705854346982
 31
0.0
  0
SOLID
  5
2DBA9
330
2D4C5
100
AcDbEntity
  8
sunpo
 62
     0
440
 16777216
100
AcDbTrace
 10
490.9032236281084
 20
-2889.305854346972
 30
0.0
 11
491.5032236281084
 21
-2889.305854346972
 31
0.0
 12
491.2032236281084
 22
-2887.505854346971
 32
0.0
 13
491.2032236281084
 23
-2887.505854346971
 33
0.0
  0
SOLID
  5
2DBAA
330
2D4C5
100
AcDbEntity
  8
sunpo
 62
     0
440
 16777216
100
AcDbTrace
 10
490.9032236281084
 20
-3025.705854346982
 30
0.0
 11
491.5032236281084
 21
-3025.705854346982
 31
0.0
 12
491.2032236281084
 22
-3027.505854346982
 32
0.0
 13
491.2032236281084
 23
-3027.505854346982
 33
0.0
  0
MTEXT
  5
2DBAB
330
2D4C5
100
AcDbEntity
  8
sunpo
 62
     0
440
 16777216
100
AcDbMText
 10
489.6532236281088
 20
-2957.505854346977
 30
0.0
 40
2.5
 41
0.0
 71
     5
 72
     1
  1
\U+03C6140
  7
DIM
 11
0.0000000000000001
 21
1.0
 31
0.0
 73
     1
 44
1.0
  0
POINT
  5
2DBAC
330
2D4C5
100
AcDbEntity
  8
Defpoints
 62
     0
440
 16777216
100
AcDbPoint
 10
460.2285331297344
 20
-2887.505854346971
 30
0.0
  0
POINT
  5
2DBAD
330
2D4C5
100
AcDbEntity
  8
Defpoints
 62
     0
440
 16777216
100
AcDbPoint
 10
460.2285331297344
 20
-3027.505854346982
 30
0.0
  0
POINT
  5
2DBAE
330
2D4C5
100
AcDbEntity
  8
Defpoints
 62
     0
440
 16777216
100
AcDbPoint
 10
491.2032236281084
 20
-3027.505854346982
 30
0.0
  0
ENDBLK
  5
2D4D0
330
2D4C5
100
AcDbEntity
  8
0
100
AcDbBlockEnd
  0
BLOCK
  5
2D4E7
330
2D4DD
100
AcDbEntity
  8
0
100
AcDbBlockBegin
  2
*D892
 70
     1
 10
0.0
 20
0.0
 30
0.0
  3
*D892
  1

  0
LINE
  5
2D506
330
2D4DD
100
AcDbEntity
  8
sunpo
 62
     0
440
 16777216
370
    -2
100
AcDbLine
 10
663.3740180247582
 20
-2874.005854346965
 30
0.0
 11
679.3252309272284
 21
-2874.005854346965
 31
0.0
  0
LINE
  5
2D507
330
2D4DD
100
AcDbEntity
  8
sunpo
 62
     0
440
 16777216
370
    -2
100
AcDbLine
 10
663.3740180247581
 20
-3041.005854346976
 30
0.0
 11
679.3252309272284
 21
-3041.005854346976
 31
0.0
  0
LINE
  5
2D508
330
2D4DD
100
AcDbEntity
  8
sunpo
 62
     0
440
 16777216
370
    -2
100
AcDbLine
 10
679.3252309272284
 20
-2875.805854346966
 30
0.0
 11
679.3252309272284
 21
-3039.205854346976
 31
0.0
  0
SOLID
  5
2D509
330
2D4DD
100
AcDbEntity
  8
sunpo
 62
     0
440
 16777216
100
AcDbTrace
 10
679.0252309272284
 20
-2875.805854346966
 30
0.0
 11
679.6252309272283
 21
-2875.805854346966
 31
0.0
 12
679.3252309272284
 22
-2874.005854346965
 32
0.0
 13
679.3252309272284
 23
-2874.005854346965
 33
0.0
  0
SOLID
  5
2D50A
330
2D4DD
100
AcDbEntity
  8
sunpo
 62
     0
440
 16777216
100
AcDbTrace
 10
679.0252309272284
 20
-3039.205854346976
 30
0.0
 11
679.6252309272283
 21
-3039.205854346976
 31
0.0
 12
679.3252309272284
 22
-3041.005854346976
 32
0.0
 13
679.3252309272284
 23
-3041.005854346976
 33
0.0
  0
MTEXT
  5
2D50B
330
2D4DD
100
AcDbEntity
  8
sunpo
 62
     0
440
 16777216
100
AcDbMText
 10
677.7752309272289
 20
-2957.505854346971
 30
0.0
 40
2.5
 41
0.0
 71
     5
 72
     1
  1
\U+03C6167
  7
DIM
 11
0.0000000000000001
 21
1.0
 31
0.0
 73
     1
 44
1.0
  0
POINT
  5
2D50C
330
2D4DD
100
AcDbEntity
  8
Defpoints
 62
     0
440
 16777216
100
AcDbPoint
 10
662.3740180247582
 20
-2874.005854346965
 30
0.0
  0
POINT
  5
2D50D
330
2D4DD
100
AcDbEntity
  8
Defpoints
 62
     0
440
 16777216
100
AcDbPoint
 10
662.3740180247581
 20
-3041.005854346976
 30
0.0
  0
POINT
  5
2D50E
330
2D4DD
100
AcDbEntity
  8
Defpoints
 62
     0
440
 16777216
100
AcDbPoint
 10
679.3252309272284
 20
-3041.005854346976
 30
0.0
  0
ENDBLK
  5
2D4E8
330
2D4DD
100
AcDbEntity
  8
0
100
AcDbBlockEnd
  0
BLOCK
  5
2D51A
330
2D510
100
AcDbEntity
  8
0
100
AcDbBlockBegin
  2
*D893
 70
     1
 10
0.0
 20
0.0
 30
0.0
  3
*D893
  1

  0
LINE
  5
2DBAF
330
2D510
100
AcDbEntity
  8
sunpo
 62
     0
440
 16777216
370
    -2
100
AcDbLine
 10
461.2285331297344
 20
-2899.505854346972
 30
0.0
 11
478.6119271747011
 21
-2899.505854346972
 31
0.0
  0
LINE
  5
2DBB0
330
2D510
100
AcDbEntity
  8
sunpo
 62
     0
440
 16777216
370
    -2
100
AcDbLine
 10
461.2285331297342
 20
-3015.505854346982
 30
0.0
 11
478.611927174701
 21
-3015.505854346982
 31
0.0
  0
LINE
  5
2DBB1
330
2D510
100
AcDbEntity
  8
sunpo
 62
     0
440
 16777216
370
    -2
100
AcDbLine
 10
478.6119271747011
 20
-2901.305854346972
 30
0.0
 11
478.611927174701
 21
-3013.705854346981
 31
0.0
  0
SOLID
  5
2DBB2
330
2D510
100
AcDbEntity
  8
sunpo
 62
     0
440
 16777216
100
AcDbTrace
 10
478.3119271747011
 20
-2901.305854346972
 30
0.0
 11
478.9119271747011
 21
-2901.305854346972
 31
0.0
 12
478.6119271747011
 22
-2899.505854346972
 32
0.0
 13
478.6119271747011
 23
-2899.505854346972
 33
0.0
  0
SOLID
  5
2DBB3
330
2D510
100
AcDbEntity
  8
sunpo
 62
     0
440
 16777216
100
AcDbTrace
 10
478.311927174701
 20
-3013.705854346981
 30
0.0
 11
478.9119271747011
 21
-3013.705854346981
 31
0.0
 12
478.611927174701
 22
-3015.505854346982
 32
0.0
 13
478.611927174701
 23
-3015.505854346982
 33
0.0
  0
MTEXT
  5
2DBB4
330
2D510
100
AcDbEntity
  8
sunpo
 62
     0
440
 16777216
100
AcDbMText
 10
477.0619271747015
 20
-2957.505854346977
 30
0.0
 40
2.5
 41
0.0
 71
     5
 72
     1
  1
\U+03C6116
  7
DIM
 11
0.0000000000000001
 21
1.0
 31
0.0
 73
     1
 44
1.0
  0
POINT
  5
2DBB5
330
2D510
100
AcDbEntity
  8
Defpoints
 62
     0
440
 16777216
100
AcDbPoint
 10
460.2285331297344
 20
-2899.505854346972
 30
0.0
  0
POINT
  5
2DBB6
330
2D510
100
AcDbEntity
  8
Defpoints
 62
     0
440
 16777216
100
AcDbPoint
 10
460.2285331297342
 20
-3015.505854346982
 30
0.0
  0
POINT
  5
2DBB7
330
2D510
100
AcDbEntity
  8
Defpoints
 62
     0
440
 16777216
100
AcDbPoint
 10
478.611927174701
 20
-3015.505854346982
 30
0.0
  0
ENDBLK
  5
2D51B
330
2D510
100
AcDbEntity
  8
0
100
AcDbBlockEnd
  0
BLOCK
  5
2D556
330
2D54C
100
AcDbEntity
  8
0
100
AcDbBlockBegin
  2
*D894
 70
     1
 10
0.0
 20
0.0
 30
0.0
  3
*D894
  1

  0
LINE
  5
2D5BB
330
2D54C
100
AcDbEntity
  8
sunpo
 62
     0
440
 16777216
370
    -2
100
AcDbLine
 10
602.3740180247584
 20
-3048.505854346985
 30
0.0
 11
602.3740180247584
 21
-3070.706830453501
 31
0.0
  0
LINE
  5
2D5BC
330
2D54C
100
AcDbEntity
  8
sunpo
 62
     0
440
 16777216
370
    -2
100
AcDbLine
 10
662.3740180247582
 20
-3053.505854346977
 30
0.0
 11
662.3740180247582
 21
-3070.706830453501
 31
0.0
  0
LINE
  5
2D5BD
330
2D54C
100
AcDbEntity
  8
sunpo
 62
     0
440
 16777216
370
    -2
100
AcDbLine
 10
604.1740180247584
 20
-3070.706830453501
 30
0.0
 11
660.5740180247583
 21
-3070.706830453501
 31
0.0
  0
SOLID
  5
2D5BE
330
2D54C
100
AcDbEntity
  8
sunpo
 62
     0
440
 16777216
100
AcDbTrace
 10
604.1740180247584
 20
-3070.4068304535
 30
0.0
 11
604.1740180247584
 21
-3071.006830453501
 31
0.0
 12
602.3740180247584
 22
-3070.706830453501
 32
0.0
 13
602.3740180247584
 23
-3070.706830453501
 33
0.0
  0
SOLID
  5
2D5BF
330
2D54C
100
AcDbEntity
  8
sunpo
 62
     0
440
 16777216
100
AcDbTrace
 10
660.5740180247583
 20
-3070.4068304535
 30
0.0
 11
660.5740180247583
 21
-3071.006830453501
 31
0.0
 12
662.3740180247582
 22
-3070.706830453501
 32
0.0
 13
662.3740180247582
 23
-3070.706830453501
 33
0.0
  0
MTEXT
  5
2D5C0
330
2D54C
100
AcDbEntity
  8
sunpo
 62
     0
440
 16777216
100
AcDbMText
 10
632.3740180247583
 20
-3069.156830453501
 30
0.0
 40
2.5
 41
0.0
 71
     5
 72
     1
  1
60
  7
DIM
 73
     1
 44
1.0
  0
POINT
  5
2D5C1
330
2D54C
100
AcDbEntity
  8
Defpoints
 62
     0
440
 16777216
100
AcDbPoint
 10
602.3740180247584
 20
-3047.505854346985
 30
0.0
  0
POINT
  5
2D5C2
330
2D54C
100
AcDbEntity
  8
Defpoints
 62
     0
440
 16777216
100
AcDbPoint
 10
662.3740180247582
 20
-3052.505854346977
 30
0.0
  0
POINT
  5
2D5C3
330
2D54C
100
AcDbEntity
  8
Defpoints
 62
     0
440
 16777216
100
AcDbPoint
 10
662.3740180247582
 20
-3070.706830453501
 30
0.0
  0
ENDBLK
  5
2D557
330
2D54C
100
AcDbEntity
  8
0
100
AcDbBlockEnd
  0
BLOCK
  5
2D563
330
2D559
100
AcDbEntity
  8
0
100
AcDbBlockBegin
  2
*D895
 70
     1
 10
0.0
 20
0.0
 30
0.0
  3
*D895
  1

  0
LINE
  5
2D5B2
330
2D559
100
AcDbEntity
  8
sunpo
 62
     0
440
 16777216
370
    -2
100
AcDbLine
 10
602.3740180247584
 20
-3048.505854346985
 30
0.0
 11
602.3740180247584
 21
-3064.561597073162
 31
0.0
  0
LINE
  5
2D5B3
330
2D559
100
AcDbEntity
  8
sunpo
 62
     0
440
 16777216
370
    -2
100
AcDbLine
 10
657.3740180247582
 20
-3053.50585434698
 30
0.0
 11
657.3740180247582
 21
-3064.561597073162
 31
0.0
  0
LINE
  5
2D5B4
330
2D559
100
AcDbEntity
  8
sunpo
 62
     0
440
 16777216
370
    -2
100
AcDbLine
 10
604.1740180247584
 20
-3064.561597073162
 30
0.0
 11
655.5740180247583
 21
-3064.561597073162
 31
0.0
  0
SOLID
  5
2D5B5
330
2D559
100
AcDbEntity
  8
sunpo
 62
     0
440
 16777216
100
AcDbTrace
 10
604.1740180247584
 20
-3064.261597073161
 30
0.0
 11
604.1740180247584
 21
-3064.861597073162
 31
0.0
 12
602.3740180247584
 22
-3064.561597073162
 32
0.0
 13
602.3740180247584
 23
-3064.561597073162
 33
0.0
  0
SOLID
  5
2D5B6
330
2D559
100
AcDbEntity
  8
sunpo
 62
     0
440
 16777216
100
AcDbTrace
 10
655.5740180247583
 20
-3064.261597073161
 30
0.0
 11
655.5740180247583
 21
-3064.861597073162
 31
0.0
 12
657.3740180247582
 22
-3064.561597073162
 32
0.0
 13
657.3740180247582
 23
-3064.561597073162
 33
0.0
  0
MTEXT
  5
2D5B7
330
2D559
100
AcDbEntity
  8
sunpo
 62
     0
440
 16777216
100
AcDbMText
 10
629.8740180247583
 20
-3063.011597073161
 30
0.0
 40
2.5
 41
0.0
 71
     5
 72
     1
  1
55
  7
DIM
 73
     1
 44
1.0
  0
POINT
  5
2D5B8
330
2D559
100
AcDbEntity
  8
Defpoints
 62
     0
440
 16777216
100
AcDbPoint
 10
602.3740180247584
 20
-3047.505854346985
 30
0.0
  0
POINT
  5
2D5B9
330
2D559
100
AcDbEntity
  8
Defpoints
 62
     0
440
 16777216
100
AcDbPoint
 10
657.3740180247582
 20
-3052.50585434698
 30
0.0
  0
POINT
  5
2D5BA
330
2D559
100
AcDbEntity
  8
Defpoints
 62
     0
440
 16777216
100
AcDbPoint
 10
657.3740180247582
 20
-3064.561597073162
 30
0.0
  0
ENDBLK
  5
2D564
330
2D559
100
AcDbEntity
  8
0
100
AcDbBlockEnd
  0
BLOCK
  5
2D57B
330
2D571
100
AcDbEntity
  8
0
100
AcDbBlockBegin
  2
*D896
 70
     1
 10
0.0
 20
0.0
 30
0.0
  3
*D896
  1

  0
LINE
  5
2D57E
330
2D571
100
AcDbEntity
  8
sunpo
 62
     0
440
 16777216
370
    -2
100
AcDbLine
 10
662.3740180247581
 20
-3040.005854346976
 30
0.0
 11
662.3740180247581
 21
-3032.208242197336
 31
0.0
  0
LINE
  5
2D57F
330
2D571
100
AcDbEntity
  8
sunpo
 62
     0
440
 16777216
370
    -2
100
AcDbLine
 10
622.3740180248706
 20
-3040.005854346979
 30
0.0
 11
622.3740180248706
 21
-3032.208242197336
 31
0.0
  0
LINE
  5
2D580
330
2D571
100
AcDbEntity
  8
sunpo
 62
     0
440
 16777216
370
    -2
100
AcDbLine
 10
660.5740180247582
 20
-3032.208242197336
 30
0.0
 11
624.1740180248704
 21
-3032.208242197336
 31
0.0
  0
SOLID
  5
2D581
330
2D571
100
AcDbEntity
  8
sunpo
 62
     0
440
 16777216
100
AcDbTrace
 10
660.5740180247582
 20
-3031.908242197336
 30
0.0
 11
660.5740180247582
 21
-3032.508242197336
 31
0.0
 12
662.3740180247581
 22
-3032.208242197336
 32
0.0
 13
662.3740180247581
 23
-3032.208242197336
 33
0.0
  0
SOLID
  5
2D582
330
2D571
100
AcDbEntity
  8
sunpo
 62
     0
440
 16777216
100
AcDbTrace
 10
624.1740180248704
 20
-3031.908242197336
 30
0.0
 11
624.1740180248704
 21
-3032.508242197336
 31
0.0
 12
622.3740180248706
 22
-3032.208242197336
 32
0.0
 13
622.3740180248706
 23
-3032.208242197336
 33
0.0
  0
MTEXT
  5
2D583
330
2D571
100
AcDbEntity
  8
sunpo
 62
     0
440
 16777216
100
AcDbMText
 10
642.3740180248143
 20
-3030.658242197335
 30
0.0
 40
2.5
 41
0.0
 71
     5
 72
     1
  1
40
  7
DIM
 73
     1
 44
1.0
  0
POINT
  5
2D584
330
2D571
100
AcDbEntity
  8
Defpoints
 62
     0
440
 16777216
100
AcDbPoint
 10
662.3740180247581
 20
-3041.005854346976
 30
0.0
  0
POINT
  5
2D585
330
2D571
100
AcDbEntity
  8
Defpoints
 62
     0
440
 16777216
100
AcDbPoint
 10
622.3740180248706
 20
-3041.005854346979
 30
0.0
  0
POINT
  5
2D586
330
2D571
100
AcDbEntity
  8
Defpoints
 62
     0
440
 16777216
100
AcDbPoint
 10
622.3740180248706
 20
-3032.208242197336
 30
0.0
  0
ENDBLK
  5
2D57C
330
2D571
100
AcDbEntity
  8
0
100
AcDbBlockEnd
  0
BLOCK
  5
2D593
330
2D589
100
AcDbEntity
  8
0
100
AcDbBlockBegin
  2
*D897
 70
     1
 10
0.0
 20
0.0
 30
0.0
  3
*D897
  1

  0
LINE
  5
2D5A9
330
2D589
100
AcDbEntity
  8
sunpo
 62
     0
440
 16777216
370
    -2
100
AcDbLine
 10
657.3740180247582
 20
-3053.505854346977
 30
0.0
 11
657.3740180247582
 21
-3064.561597073162
 31
0.0
  0
LINE
  5
2D5AA
330
2D589
100
AcDbEntity
  8
sunpo
 62
     0
440
 16777216
370
    -2
100
AcDbLine
 10
662.3740180247582
 20
-3053.505854346977
 30
0.0
 11
662.3740180247582
 21
-3064.561597073162
 31
0.0
  0
LINE
  5
2D5AB
330
2D589
100
AcDbEntity
  8
sunpo
 62
     0
440
 16777216
370
    -2
100
AcDbLine
 10
659.1740180247581
 20
-3064.561597073162
 30
0.0
 11
660.5740180247583
 21
-3064.561597073162
 31
0.0
  0
SOLID
  5
2D5AC
330
2D589
100
AcDbEntity
  8
sunpo
 62
     0
440
 16777216
100
AcDbTrace
 10
659.1740180247581
 20
-3064.261597073161
 30
0.0
 11
659.1740180247581
 21
-3064.861597073162
 31
0.0
 12
657.3740180247582
 22
-3064.561597073162
 32
0.0
 13
657.3740180247582
 23
-3064.561597073162
 33
0.0
  0
SOLID
  5
2D5AD
330
2D589
100
AcDbEntity
  8
sunpo
 62
     0
440
 16777216
100
AcDbTrace
 10
660.5740180247583
 20
-3064.261597073161
 30
0.0
 11
660.5740180247583
 21
-3064.861597073162
 31
0.0
 12
662.3740180247582
 22
-3064.561597073162
 32
0.0
 13
662.3740180247582
 23
-3064.561597073162
 33
0.0
  0
MTEXT
  5
2D5AE
330
2D589
100
AcDbEntity
  8
sunpo
 62
     0
440
 16777216
100
AcDbMText
 10
659.8740180247582
 20
-3063.011597073161
 30
0.0
 40
2.5
 41
0.0
 71
     5
 72
     1
  1
5
  7
DIM
 73
     1
 44
1.0
  0
POINT
  5
2D5AF
330
2D589
100
AcDbEntity
  8
Defpoints
 62
     0
440
 16777216
100
AcDbPoint
 10
657.3740180247582
 20
-3052.505854346977
 30
0.0
  0
POINT
  5
2D5B0
330
2D589
100
AcDbEntity
  8
Defpoints
 62
     0
440
 16777216
100
AcDbPoint
 10
662.3740180247582
 20
-3052.505854346977
 30
0.0
  0
POINT
  5
2D5B1
330
2D589
100
AcDbEntity
  8
Defpoints
 62
     0
440
 16777216
100
AcDbPoint
 10
662.3740180247582
 20
-3064.561597073162
 30
0.0
  0
ENDBLK
  5
2D594
330
2D589
100
AcDbEntity
  8
0
100
AcDbBlockEnd
  0
BLOCK
  5
2D5CF
330
2D5C5
100
AcDbEntity
  8
0
100
AcDbBlockBegin
  2
*D898
 70
     1
 10
0.0
 20
0.0
 30
0.0
  3
*D898
  1

  0
LINE
  5
2DBB8
330
2D5C5
100
AcDbEntity
  8
sunpo
 62
     0
440
 16777216
370
    -2
100
AcDbLine
 10
400.2285331297346
 20
-3023.505854346979
 30
0.0
 11
400.2285331297346
 21
-3047.003848182127
 31
0.0
  0
LINE
  5
2DBB9
330
2D5C5
100
AcDbEntity
  8
sunpo
 62
     0
440
 16777216
370
    -2
100
AcDbLine
 10
460.2285331297344
 20
-3028.505854346982
 30
0.0
 11
460.2285331297344
 21
-3047.003848182127
 31
0.0
  0
LINE
  5
2DBBA
330
2D5C5
100
AcDbEntity
  8
sunpo
 62
     0
440
 16777216
370
    -2
100
AcDbLine
 10
402.0285331297346
 20
-3047.003848182127
 30
0.0
 11
458.4285331297343
 21
-3047.003848182127
 31
0.0
  0
SOLID
  5
2DBBB
330
2D5C5
100
AcDbEntity
  8
sunpo
 62
     0
440
 16777216
100
AcDbTrace
 10
402.0285331297346
 20
-3046.703848182127
 30
0.0
 11
402.0285331297346
 21
-3047.303848182127
 31
0.0
 12
400.2285331297346
 22
-3047.003848182127
 32
0.0
 13
400.2285331297346
 23
-3047.003848182127
 33
0.0
  0
SOLID
  5
2DBBC
330
2D5C5
100
AcDbEntity
  8
sunpo
 62
     0
440
 16777216
100
AcDbTrace
 10
458.4285331297343
 20
-3046.703848182127
 30
0.0
 11
458.4285331297343
 21
-3047.303848182127
 31
0.0
 12
460.2285331297344
 22
-3047.003848182127
 32
0.0
 13
460.2285331297344
 23
-3047.003848182127
 33
0.0
  0
MTEXT
  5
2DBBD
330
2D5C5
100
AcDbEntity
  8
sunpo
 62
     0
440
 16777216
100
AcDbMText
 10
430.2285331297345
 20
-3045.453848182126
 30
0.0
 40
2.5
 41
0.0
 71
     5
 72
     1
  1
60
  7
DIM
 73
     1
 44
1.0
  0
POINT
  5
2DBBE
330
2D5C5
100
AcDbEntity
  8
Defpoints
 62
     0
440
 16777216
100
AcDbPoint
 10
400.2285331297346
 20
-3022.505854346979
 30
0.0
  0
POINT
  5
2DBBF
330
2D5C5
100
AcDbEntity
  8
Defpoints
 62
     0
440
 16777216
100
AcDbPoint
 10
460.2285331297344
 20
-3027.505854346982
 30
0.0
  0
POINT
  5
2DBC0
330
2D5C5
100
AcDbEntity
  8
Defpoints
 62
     0
440
 16777216
100
AcDbPoint
 10
460.2285331297344
 20
-3047.003848182127
 30
0.0
  0
ENDBLK
  5
2D5D0
330
2D5C5
100
AcDbEntity
  8
0
100
AcDbBlockEnd
  0
BLOCK
  5
2D5E7
330
2D5DD
100
AcDbEntity
  8
0
100
AcDbBlockBegin
  2
*D899
 70
     1
 10
0.0
 20
0.0
 30
0.0
  3
*D899
  1

  0
LINE
  5
2DBC1
330
2D5DD
100
AcDbEntity
  8
sunpo
 62
     0
440
 16777216
370
    -2
100
AcDbLine
 10
400.2285331297343
 20
-3023.505854346974
 30
0.0
 11
400.2285331297343
 21
-3040.830850816443
 31
0.0
  0
LINE
  5
2DBC2
330
2D5DD
100
AcDbEntity
  8
sunpo
 62
     0
440
 16777216
370
    -2
100
AcDbLine
 10
455.2285331297343
 20
-3028.505854346982
 30
0.0
 11
455.2285331297343
 21
-3040.830850816443
 31
0.0
  0
LINE
  5
2DBC3
330
2D5DD
100
AcDbEntity
  8
sunpo
 62
     0
440
 16777216
370
    -2
100
AcDbLine
 10
402.0285331297343
 20
-3040.830850816443
 30
0.0
 11
453.4285331297343
 21
-3040.830850816443
 31
0.0
  0
SOLID
  5
2DBC4
330
2D5DD
100
AcDbEntity
  8
sunpo
 62
     0
440
 16777216
100
AcDbTrace
 10
402.0285331297343
 20
-3040.530850816443
 30
0.0
 11
402.0285331297343
 21
-3041.130850816443
 31
0.0
 12
400.2285331297343
 22
-3040.830850816443
 32
0.0
 13
400.2285331297343
 23
-3040.830850816443
 33
0.0
  0
SOLID
  5
2DBC5
330
2D5DD
100
AcDbEntity
  8
sunpo
 62
     0
440
 16777216
100
AcDbTrace
 10
453.4285331297343
 20
-3040.530850816443
 30
0.0
 11
453.4285331297343
 21
-3041.130850816443
 31
0.0
 12
455.2285331297343
 22
-3040.830850816443
 32
0.0
 13
455.2285331297343
 23
-3040.830850816443
 33
0.0
  0
MTEXT
  5
2DBC6
330
2D5DD
100
AcDbEntity
  8
sunpo
 62
     0
440
 16777216
100
AcDbMText
 10
427.7285331297344
 20
-3039.280850816443
 30
0.0
 40
2.5
 41
0.0
 71
     5
 72
     1
  1
55
  7
DIM
 73
     1
 44
1.0
  0
POINT
  5
2DBC7
330
2D5DD
100
AcDbEntity
  8
Defpoints
 62
     0
440
 16777216
100
AcDbPoint
 10
400.2285331297343
 20
-3022.505854346973
 30
0.0
  0
POINT
  5
2DBC8
330
2D5DD
100
AcDbEntity
  8
Defpoints
 62
     0
440
 16777216
100
AcDbPoint
 10
455.2285331297343
 20
-3027.505854346982
 30
0.0
  0
POINT
  5
2DBC9
330
2D5DD
100
AcDbEntity
  8
Defpoints
 62
     0
440
 16777216
100
AcDbPoint
 10
455.2285331297343
 20
-3040.830850816443
 30
0.0
  0
ENDBLK
  5
2D5E8
330
2D5DD
100
AcDbEntity
  8
0
100
AcDbBlockEnd
  0
BLOCK
  5
2D5FF
330
2D5F5
100
AcDbEntity
  8
0
100
AcDbBlockBegin
  2
*D900
 70
     1
 10
0.0
 20
0.0
 30
0.0
  3
*D900
  1

  0
LINE
  5
2DBCA
330
2D5F5
100
AcDbEntity
  8
sunpo
 62
     0
440
 16777216
370
    -2
100
AcDbLine
 10
455.2285331297343
 20
-3028.505854346982
 30
0.0
 11
455.2285331297343
 21
-3040.830850816443
 31
0.0
  0
LINE
  5
2DBCB
330
2D5F5
100
AcDbEntity
  8
sunpo
 62
     0
440
 16777216
370
    -2
100
AcDbLine
 10
460.2285331297344
 20
-3028.505854346982
 30
0.0
 11
460.2285331297344
 21
-3040.830850816443
 31
0.0
  0
LINE
  5
2DBCC
330
2D5F5
100
AcDbEntity
  8
sunpo
 62
     0
440
 16777216
370
    -2
100
AcDbLine
 10
457.0285331297344
 20
-3040.830850816443
 30
0.0
 11
458.4285331297343
 21
-3040.830850816443
 31
0.0
  0
SOLID
  5
2DBCD
330
2D5F5
100
AcDbEntity
  8
sunpo
 62
     0
440
 16777216
100
AcDbTrace
 10
457.0285331297344
 20
-3040.530850816443
 30
0.0
 11
457.0285331297344
 21
-3041.130850816443
 31
0.0
 12
455.2285331297343
 22
-3040.830850816443
 32
0.0
 13
455.2285331297343
 23
-3040.830850816443
 33
0.0
  0
SOLID
  5
2DBCE
330
2D5F5
100
AcDbEntity
  8
sunpo
 62
     0
440
 16777216
100
AcDbTrace
 10
458.4285331297343
 20
-3040.530850816443
 30
0.0
 11
458.4285331297343
 21
-3041.130850816443
 31
0.0
 12
460.2285331297344
 22
-3040.830850816443
 32
0.0
 13
460.2285331297344
 23
-3040.830850816443
 33
0.0
  0
MTEXT
  5
2DBCF
330
2D5F5
100
AcDbEntity
  8
sunpo
 62
     0
440
 16777216
100
AcDbMText
 10
457.7285331297344
 20
-3039.280850816443
 30
0.0
 40
2.5
 41
0.0
 71
     5
 72
     1
  1
5
  7
DIM
 73
     1
 44
1.0
  0
POINT
  5
2DBD0
330
2D5F5
100
AcDbEntity
  8
Defpoints
 62
     0
440
 16777216
100
AcDbPoint
 10
455.2285331297343
 20
-3027.505854346982
 30
0.0
  0
POINT
  5
2DBD1
330
2D5F5
100
AcDbEntity
  8
Defpoints
 62
     0
440
 16777216
100
AcDbPoint
 10
460.2285331297344
 20
-3027.505854346982
 30
0.0
  0
POINT
  5
2DBD2
330
2D5F5
100
AcDbEntity
  8
Defpoints
 62
     0
440
 16777216
100
AcDbPoint
 10
460.2285331297344
 20
-3040.830850816443
 30
0.0
  0
ENDBLK
  5
2D600
330
2D5F5
100
AcDbEntity
  8
0
100
AcDbBlockEnd
  0
BLOCK
  5
2D617
330
2D60D
100
AcDbEntity
  8
0
100
AcDbBlockBegin
  2
*D901
 70
     1
 10
0.0
 20
0.0
 30
0.0
  3
*D901
  1

  0
LINE
  5
2DBD3
330
2D60D
100
AcDbEntity
  8
sunpo
 62
     0
440
 16777216
370
    -2
100
AcDbLine
 10
420.2285331298467
 20
-3014.505854346973
 30
0.0
 11
420.2285331298467
 21
-3004.742544375251
 31
0.0
  0
LINE
  5
2DBD4
330
2D60D
100
AcDbEntity
  8
sunpo
 62
     0
440
 16777216
370
    -2
100
AcDbLine
 10
460.2285331297341
 20
-3014.505854346973
 30
0.0
 11
460.2285331297341
 21
-3004.742544375251
 31
0.0
  0
LINE
  5
2DBD5
330
2D60D
100
AcDbEntity
  8
sunpo
 62
     0
440
 16777216
370
    -2
100
AcDbLine
 10
422.0285331298467
 20
-3004.742544375251
 30
0.0
 11
458.4285331297341
 21
-3004.742544375251
 31
0.0
  0
SOLID
  5
2DBD6
330
2D60D
100
AcDbEntity
  8
sunpo
 62
     0
440
 16777216
100
AcDbTrace
 10
422.0285331298467
 20
-3004.442544375251
 30
0.0
 11
422.0285331298467
 21
-3005.042544375251
 31
0.0
 12
420.2285331298467
 22
-3004.742544375251
 32
0.0
 13
420.2285331298467
 23
-3004.742544375251
 33
0.0
  0
SOLID
  5
2DBD7
330
2D60D
100
AcDbEntity
  8
sunpo
 62
     0
440
 16777216
100
AcDbTrace
 10
458.4285331297341
 20
-3004.442544375251
 30
0.0
 11
458.4285331297341
 21
-3005.042544375251
 31
0.0
 12
460.2285331297341
 22
-3004.742544375251
 32
0.0
 13
460.2285331297341
 23
-3004.742544375251
 33
0.0
  0
MTEXT
  5
2DBD8
330
2D60D
100
AcDbEntity
  8
sunpo
 62
     0
440
 16777216
100
AcDbMText
 10
440.2285331297904
 20
-3003.192544375251
 30
0.0
 40
2.5
 41
0.0
 71
     5
 72
     1
  1
40
  7
DIM
 73
     1
 44
1.0
  0
POINT
  5
2DBD9
330
2D60D
100
AcDbEntity
  8
Defpoints
 62
     0
440
 16777216
100
AcDbPoint
 10
420.2285331298467
 20
-3015.505854346973
 30
0.0
  0
POINT
  5
2DBDA
330
2D60D
100
AcDbEntity
  8
Defpoints
 62
     0
440
 16777216
100
AcDbPoint
 10
460.2285331297341
 20
-3015.505854346973
 30
0.0
  0
POINT
  5
2DBDB
330
2D60D
100
AcDbEntity
  8
Defpoints
 62
     0
440
 16777216
100
AcDbPoint
 10
460.2285331297341
 20
-3004.742544375251
 30
0.0
  0
ENDBLK
  5
2D618
330
2D60D
100
AcDbEntity
  8
0
100
AcDbBlockEnd
  0
BLOCK
  5
2D64A
330
2D640
100
AcDbEntity
  8
0
100
AcDbBlockBegin
  2
*D902
 70
     1
 10
0.0
 20
0.0
 30
0.0
  3
*D902
  1

  0
LINE
  5
2D669
330
2D640
100
AcDbEntity
  8
sunpo
 62
     0
440
 16777216
370
    -2
100
AcDbLine
 10
656.3740180247584
 20
-3044.005854346976
 30
0.0
 11
686.1662260006305
 21
-3044.005854346976
 31
0.0
  0
LINE
  5
2D66A
330
2D640
100
AcDbEntity
  8
sunpo
 62
     0
440
 16777216
370
    -2
100
AcDbLine
 10
656.3740180247584
 20
-2871.005854346966
 30
0.0
 11
686.1662260006305
 21
-2871.005854346966
 31
0.0
  0
LINE
  5
2D66B
330
2D640
100
AcDbEntity
  8
sunpo
 62
     0
440
 16777216
370
    -2
100
AcDbLine
 10
686.1662260006305
 20
-3042.205854346976
 30
0.0
 11
686.1662260006305
 21
-2872.805854346966
 31
0.0
  0
SOLID
  5
2D66C
330
2D640
100
AcDbEntity
  8
sunpo
 62
     0
440
 16777216
100
AcDbTrace
 10
685.8662260006306
 20
-3042.205854346976
 30
0.0
 11
686.4662260006305
 21
-3042.205854346976
 31
0.0
 12
686.1662260006305
 22
-3044.005854346976
 32
0.0
 13
686.1662260006305
 23
-3044.005854346976
 33
0.0
  0
SOLID
  5
2D66D
330
2D640
100
AcDbEntity
  8
sunpo
 62
     0
440
 16777216
100
AcDbTrace
 10
685.8662260006306
 20
-2872.805854346966
 30
0.0
 11
686.4662260006305
 21
-2872.805854346966
 31
0.0
 12
686.1662260006305
 22
-2871.005854346966
 32
0.0
 13
686.1662260006305
 23
-2871.005854346966
 33
0.0
  0
MTEXT
  5
2D66E
330
2D640
100
AcDbEntity
  8
sunpo
 62
     0
440
 16777216
100
AcDbMText
 10
684.616226000631
 20
-2957.505854346971
 30
0.0
 40
2.5
 41
0.0
 71
     5
 72
     1
  1
\U+03C6173
  7
DIM
 11
0.0000000000000001
 21
1.0
 31
0.0
 73
     1
 44
1.0
  0
POINT
  5
2D66F
330
2D640
100
AcDbEntity
  8
Defpoints
 62
     0
440
 16777216
100
AcDbPoint
 10
655.3740180247585
 20
-3044.005854346976
 30
0.0
  0
POINT
  5
2D670
330
2D640
100
AcDbEntity
  8
Defpoints
 62
     0
440
 16777216
100
AcDbPoint
 10
655.3740180247585
 20
-2871.005854346966
 30
0.0
  0
POINT
  5
2D671
330
2D640
100
AcDbEntity
  8
Defpoints
 62
     0
440
 16777216
100
AcDbPoint
 10
686.1662260006305
 20
-2871.005854346966
 30
0.0
  0
ENDBLK
  5
2D64B
330
2D640
100
AcDbEntity
  8
0
100
AcDbBlockEnd
  0
BLOCK
  5
2D687
330
2D67D
100
AcDbEntity
  8
0
100
AcDbBlockBegin
  2
*D903
 70
     1
 10
0.0
 20
0.0
 30
0.0
  3
*D903
  1

  0
LINE
  5
2DBDC
330
2D67D
100
AcDbEntity
  8
sunpo
 62
     0
440
 16777216
370
    -2
100
AcDbLine
 10
454.2285331297343
 20
-3018.505854346982
 30
0.0
 11
485.346227791404
 21
-3018.505854346982
 31
0.0
  0
LINE
  5
2DBDD
330
2D67D
100
AcDbEntity
  8
sunpo
 62
     0
440
 16777216
370
    -2
100
AcDbLine
 10
454.2285331297365
 20
-2896.505854346969
 30
0.0
 11
485.346227791404
 21
-2896.505854346969
 31
0.0
  0
LINE
  5
2DBDE
330
2D67D
100
AcDbEntity
  8
sunpo
 62
     0
440
 16777216
370
    -2
100
AcDbLine
 10
485.346227791404
 20
-3016.705854346981
 30
0.0
 11
485.346227791404
 21
-2898.30585434697
 31
0.0
  0
SOLID
  5
2DBDF
330
2D67D
100
AcDbEntity
  8
sunpo
 62
     0
440
 16777216
100
AcDbTrace
 10
485.046227791404
 20
-3016.705854346981
 30
0.0
 11
485.646227791404
 21
-3016.705854346981
 31
0.0
 12
485.346227791404
 22
-3018.505854346982
 32
0.0
 13
485.346227791404
 23
-3018.505854346982
 33
0.0
  0
SOLID
  5
2DBE0
330
2D67D
100
AcDbEntity
  8
sunpo
 62
     0
440
 16777216
100
AcDbTrace
 10
485.046227791404
 20
-2898.30585434697
 30
0.0
 11
485.646227791404
 21
-2898.30585434697
 31
0.0
 12
485.346227791404
 22
-2896.505854346969
 32
0.0
 13
485.346227791404
 23
-2896.505854346969
 33
0.0
  0
MTEXT
  5
2DBE1
330
2D67D
100
AcDbEntity
  8
sunpo
 62
     0
440
 16777216
100
AcDbMText
 10
483.7962277914045
 20
-2957.505854346976
 30
0.0
 40
2.5
 41
0.0
 71
     5
 72
     1
  1
\U+03C6122
  7
DIM
 11
0.0000000000000001
 21
1.0
 31
0.0
 73
     1
 44
1.0
  0
POINT
  5
2DBE2
330
2D67D
100
AcDbEntity
  8
Defpoints
 62
     0
440
 16777216
100
AcDbPoint
 10
453.2285331297344
 20
-3018.505854346982
 30
0.0
  0
POINT
  5
2DBE3
330
2D67D
100
AcDbEntity
  8
Defpoints
 62
     0
440
 16777216
100
AcDbPoint
 10
453.2285331297365
 20
-2896.505854346969
 30
0.0
  0
POINT
  5
2DBE4
330
2D67D
100
AcDbEntity
  8
Defpoints
 62
     0
440
 16777216
100
AcDbPoint
 10
485.346227791404
 20
-2896.505854346969
 30
0.0
  0
ENDBLK
  5
2D688
330
2D67D
100
AcDbEntity
  8
0
100
AcDbBlockEnd
  0
ENDSEC
  0
SECTION
  2
ENTITIES
  0
HATCH
  5
27DC4
330
1F
100
AcDbEntity
  8
gaikei
100
AcDbHatch
 10
0.0
 20
0.0
 30
0.0
210
0.0
220
0.0
230
1.0
  2
AR-CONC
 70
     0
 71
     0
 91
        1
 92
        9
 93
        4
 72
     1
 10
845.7119967800057
 20
-3805.327790743247
 11
894.2834253514343
 21
-3805.327790743247
 72
     1
 10
894.2834253514343
 20
-3805.327790743247
 11
894.2834253514343
 21
-3835.327790743247
 72
     1
 10
894.2834253514343
 20
-3835.327790743247
 11
845.7119967800057
 21
-3835.327790743247
 72
     1
 10
845.7119967800057
 20
-3835.327790743247
 11
845.7119967800057
 21
-3805.327790743247
 97
        0
 75
     0
 76
     1
 52
0.0
 41
0.25
 77
     0
 78
    13
 53
50.0
 43
0.0
 44
0.0
 45
45.546167249001
 46
-3.984771384725771
 79
     2
 49
4.7625
 49
-52.3875
 53
355.0
 43
0.0
 44
0.0
 45
-8.810706493916747
 46
47.76416072054499
 79
     2
 49
3.81
 49
-41.90999999999999
 53
100.451
 43
3.7955
 44
-0.3320625
 45
36.73562541648981
 46
43.77917195507296
 79
     2
 49
4.0475
 49
-44.5225
 53
46.1842
 43
0.0
 44
12.7
 45
67.76976022303248
 46
-10.51058198318179
 79
     2
 49
7.143749999999999
 49
-78.58125
 53
96.6356
 43
5.647475
 44
11.824125
 45
59.35105861655928
 46
61.8563889725123
 79
     2
 49
6.07125
 49
-66.78374999999999
 53
351.184
 43
0.0
 44
12.7
 45
59.35115145348348
 46
61.85627946514942
 79
     2
 49
5.714999999999999
 49
-62.865
 53
21.0
 43
6.349999999999999
 44
9.525
 45
37.90371995884582
 46
-25.56637962919062
 79
     2
 49
4.7625
 49
-52.3875
 53
326.0
 43
6.349999999999999
 44
9.525
 45
15.45050708691177
 46
46.04699153057981
 79
     2
 49
3.81
 49
-41.90999999999999
 53
71.45140000000001
 43
9.508625
 44
7.394474999999999
 45
53.35412269253112
 46
20.48071442901436
 79
     2
 49
4.0475
 49
-44.5225
 53
37.5
 43
0.0
 44
0.0
 45
0.7721508126479542
 46
21.13875971828828
 79
     6
 49
0.0
 49
-41.402
 49
0.0
 49
-42.545
 49
0.0
 49
-42.06875
 53
7.499999999999999
 43
0.0
 44
0.0
 45
16.70491562757644
 46
25.04514370452988
 79
     6
 49
0.0
 49
-24.257
 49
0.0
 49
-40.4495
 49
0.0
 49
-16.03375
 53
327.5
 43
-14.1605
 44
0.0
 45
33.89764879171785
 46
-1.432185998168364
 79
     6
 49
0.0
 49
-15.875
 49
0.0
 49
-49.53
 49
0.0
 49
-65.7225
 53
317.5
 43
-20.5105
 44
0.0
 45
37.03229534650451
 46
6.356622758333253
 79
     6
 49
0.0
 49
-20.6375
 49
0.0
 49
-32.893
 49
0.0
 49
-46.6725
 98
        1
 10
1154.823173805158
 20
-3858.190494467502
1001
ACAD
1010
0.0
1020
0.0
1030
0.0
  0
LINE
  5
2B81F
330
1F
100
AcDbEntity
  8
gaikei
100
AcDbLine
 10
425.2285331297342
 20
-2892.505854346964
 30
0.0
 11
400.2285331297339
 21
-2892.505854346968
 31
0.0
  0
LINE
  5
2B821
330
1F
100
AcDbEntity
  8
kijun
100
AcDbLine
 10
385.5483885713802
 20
-2957.505854346972
 30
0.0
 11
472.9931082722032
 21
-2957.505854346972
 31
0.0
  0
LINE
  5
2B833
330
1F
100
AcDbEntity
  8
kijun
100
AcDbLine
 10
584.1880590661239
 20
-2957.505854346971
 30
0.0
 11
672.8757120483132
 21
-2957.505854346971
 31
0.0
  0
LINE
  5
2B84C
330
1F
100
AcDbEntity
  8
gaikei
100
AcDbLine
 10
420.2285331297345
 20
-2896.505854346973
 30
0.0
 11
420.2285331297345
 21
-2899.505854346972
 31
0.0
  0
LINE
  5
2B84D
330
1F
100
AcDbEntity
  8
gaikei
100
AcDbLine
 10
425.2285331297346
 20
-2892.505854346968
 30
0.0
 11
400.2285331297343
 21
-2892.505854346972
 31
0.0
  0
LINE
  5
2B84E
102
{ACAD_REACTORS
330
2D4AB
102
}
330
1F
100
AcDbEntity
  8
gaikei
100
AcDbLine
 10
400.2285331297343
 20
-2892.505854346968
 30
0.0
 11
400.2285331297346
 21
-2892.505854346966
 31
0.0
  0
LINE
  5
2B84F
330
1F
100
AcDbEntity
  8
gaikei
100
AcDbLine
 10
420.2285331297345
 20
-2896.505854346973
 30
0.0
 11
452.2285331297348
 21
-2896.505854346971
 31
0.0
  0
LINE
  5
2B850
330
1F
100
AcDbEntity
  8
gaikei
100
AcDbLine
 10
409.7285331297343
 20
-2901.396821794586
 30
0.0
 11
412.5214263485477
 21
-2899.21296112816
 31
0.0
  0
ARC
  5
2B851
330
1F
100
AcDbEntity
  8
gaikei
100
AcDbCircle
 10
411.8143195673614
 20
-2898.505854346974
 30
0.0
 40
1.0
100
AcDbArc
 50
314.9999999999817
 51
90.0
  0
LINE
  5
2B852
330
1F
100
AcDbEntity
  8
gaikei
100
AcDbLine
 10
450.2285331297343
 20
-2892.505854346968
 30
0.0
 11
450.2285331297346
 21
-2893.505854346967
 31
0.0
  0
LINE
  5
2B853
330
1F
100
AcDbEntity
  8
gaikei
100
AcDbLine
 10
450.2285331297346
 20
-2893.505854346967
 30
0.0
 11
425.2285331297346
 21
-2893.505854346967
 31
0.0
  0
LINE
  5
2B855
102
{ACAD_REACTORS
330
2D4C3
102
}
330
1F
100
AcDbEntity
  8
gaikei
100
AcDbLine
 10
411.8143195673614
 20
-2897.505854346974
 30
0.0
 11
400.2285331297343
 21
-2897.505854346972
 31
0.0
  0
LINE
  5
2B856
330
1F
100
AcDbEntity
  8
gaikei
100
AcDbLine
 10
409.7285331297346
 20
-2901.396821794587
 30
0.0
 11
409.7285331297265
 21
-2957.505854346972
 31
0.0
  0
LINE
  5
2B857
330
1F
100
AcDbEntity
  8
gaikei
100
AcDbLine
 10
409.7285331297343
 20
-2902.992131957945
 30
0.0
 11
415.9765649224225
 21
-2900.314404046792
 31
0.0
  0
LINE
  5
2B858
330
1F
100
AcDbEntity
  8
gaikei
100
AcDbLine
 10
420.2285331298467
 20
-2899.505854346972
 30
0.0
 11
419.9157579082152
 21
-2899.505854346972
 31
0.0
  0
ARC
  5
2B859
330
1F
100
AcDbEntity
  8
gaikei
100
AcDbCircle
 10
419.9157579082152
 20
-2909.505854346972
 30
0.0
 40
10.0
100
AcDbArc
 50
90.0
 51
113.1985905136533
  0
LINE
  5
2B85A
330
1F
100
AcDbEntity
  8
gaikei
100
AcDbLine
 10
450.2285331297346
 20
-2887.505854346973
 30
0.0
 11
450.2285331297343
 21
-2892.505854346968
 31
0.0
  0
LINE
  5
2B85B
330
1F
100
AcDbEntity
  8
gaikei
100
AcDbLine
 10
455.2285331297343
 20
-2887.505854346971
 30
0.0
 11
450.2285331297346
 21
-2887.505854346971
 31
0.0
  0
LINE
  5
2B85C
330
1F
100
AcDbEntity
  8
gaikei
100
AcDbLine
 10
455.2285331297343
 20
-2893.505854346972
 30
0.0
 11
455.2285331297343
 21
-2887.505854346971
 31
0.0
  0
LINE
  5
2B85D
330
1F
100
AcDbEntity
  8
gaikei
100
AcDbLine
 10
452.2285331297344
 20
-2896.505854346971
 30
0.0
 11
455.2285331297343
 21
-2893.505854346972
 31
0.0
  0
LINE
  5
2B85E
330
1F
100
AcDbEntity
  8
gaikei
100
AcDbLine
 10
450.2285331297343
 20
-2892.505854346968
 30
0.0
 11
450.2285331297346
 21
-2893.505854346967
 31
0.0
  0
LINE
  5
2B85F
330
1F
100
AcDbEntity
  8
gaikei
100
AcDbLine
 10
400.2285331297343
 20
-2957.505854346972
 30
0.0
 11
400.2285331297343
 21
-2892.505854346972
 31
0.0
  0
LINE
  5
2B860
330
1F
100
AcDbEntity
  8
gaikei
100
AcDbLine
 10
405.2285331297347
 20
-3022.505854346974
 30
0.0
 11
400.2285331297339
 21
-3022.505854346977
 31
0.0
  0
LINE
  5
2B862
330
1F
100
AcDbEntity
  8
hasen
100
AcDbLine
 10
420.2285331297345
 20
-3018.505854346972
 30
0.0
 11
420.2285331297345
 21
-3015.505854346973
 31
0.0
  0
LINE
  5
2B863
330
1F
100
AcDbEntity
  8
gaikei
100
AcDbLine
 10
405.2285331297347
 20
-3022.505854346974
 30
0.0
 11
400.2285331297343
 21
-3022.505854346973
 31
0.0
  0
LINE
  5
2B864
102
{ACAD_REACTORS
330
2D5DB
102
}
330
1F
100
AcDbEntity
  8
gaikei
100
AcDbLine
 10
400.2285331297343
 20
-3022.505854346976
 30
0.0
 11
400.2285331297346
 21
-3022.505854346979
 31
0.0
  0
LINE
  5
2B865
330
1F
100
AcDbEntity
  8
hasen
100
AcDbLine
 10
420.2285331297345
 20
-3018.505854346972
 30
0.0
 11
452.2285331297348
 21
-3018.505854346974
 31
0.0
  0
LINE
  5
2B866
330
1F
100
AcDbEntity
  8
hasen
100
AcDbLine
 10
409.7285331297343
 20
-3013.614886899359
 30
0.0
 11
412.5214263485477
 21
-3015.798747565785
 31
0.0
  0
ARC
  5
2B867
330
1F
100
AcDbEntity
  8
hasen
100
AcDbCircle
 10
411.8143195673614
 20
-3016.505854346971
 30
0.0
 40
1.0
100
AcDbArc
 50
270.0
 51
45.00000000001707
  0
LINE
  5
2B868
330
1F
100
AcDbEntity
  8
gaikei
100
AcDbLine
 10
450.2285331297343
 20
-3022.505854346977
 30
0.0
 11
450.2285331297346
 21
-3021.505854346977
 31
0.0
  0
LINE
  5
2B869
330
1F
100
AcDbEntity
  8
hasen
100
AcDbLine
 10
445.2285331297345
 20
-3021.505854346977
 30
0.0
 11
425.2285331297346
 21
-3021.505854346977
 31
0.0
  0
LINE
  5
2B86A
330
1F
100
AcDbEntity
  8
gaikei
100
AcDbLine
 10
425.2285331297344
 20
-2957.505854346972
 30
0.0
 11
425.2285331297346
 21
-3023.505854346977
 31
0.0
  0
LINE
  5
2B86B
102
{ACAD_REACTORS
330
2D4C3
102
}
330
1F
100
AcDbEntity
  8
hasen
100
AcDbLine
 10
411.8143195673614
 20
-3017.505854346971
 30
0.0
 11
400.2285331297343
 21
-3017.505854346973
 31
0.0
  0
LINE
  5
2B86C
330
1F
100
AcDbEntity
  8
hasen
100
AcDbLine
 10
409.7285331297346
 20
-3013.614886899358
 30
0.0
 11
409.7285331297266
 21
-2957.505854346972
 31
0.0
  0
LINE
  5
2B86D
330
1F
100
AcDbEntity
  8
hasen
100
AcDbLine
 10
409.7285331297343
 20
-3012.019576736
 30
0.0
 11
415.9765649224225
 21
-3014.697304647153
 31
0.0
  0
LINE
  5
2B86E
102
{ACAD_REACTORS
330
2D623
102
}
330
1F
100
AcDbEntity
  8
hasen
100
AcDbLine
 10
420.2285331298467
 20
-3015.505854346973
 30
0.0
 11
419.9157579082152
 21
-3015.505854346973
 31
0.0
  0
ARC
  5
2B86F
330
1F
100
AcDbEntity
  8
hasen
100
AcDbCircle
 10
419.9157579082152
 20
-3005.505854346973
 30
0.0
 40
10.0
100
AcDbArc
 50
246.8014094863396
 51
270.0
  0
LINE
  5
2B870
330
1F
100
AcDbEntity
  8
gaikei
100
AcDbLine
 10
450.2285331297346
 20
-3027.505854346971
 30
0.0
 11
450.2285331297343
 21
-3022.505854346977
 31
0.0
  0
LINE
  5
2B871
330
1F
100
AcDbEntity
  8
gaikei
100
AcDbLine
 10
455.2285331297343
 20
-3027.505854346973
 30
0.0
 11
450.2285331297346
 21
-3027.505854346973
 31
0.0
  0
LINE
  5
2B872
330
1F
100
AcDbEntity
  8
gaikei
100
AcDbLine
 10
455.2285331297343
 20
-3021.505854346973
 30
0.0
 11
455.2285331297343
 21
-3027.505854346973
 31
0.0
  0
LINE
  5
2B873
330
1F
100
AcDbEntity
  8
hasen
100
AcDbLine
 10
452.2285331297344
 20
-3018.505854346973
 30
0.0
 11
455.2285331297343
 21
-3021.505854346973
 31
0.0
  0
LINE
  5
2B874
330
1F
100
AcDbEntity
  8
gaikei
100
AcDbLine
 10
450.2285331297343
 20
-3022.505854346977
 30
0.0
 11
450.228533129749
 21
-2957.505854346972
 31
0.0
  0
LINE
  5
2B875
102
{ACAD_REACTORS
330
2D4AB
102
}
330
1F
100
AcDbEntity
  8
gaikei
100
AcDbLine
 10
400.2285331297343
 20
-2957.505854346972
 30
0.0
 11
400.2285331297343
 21
-3022.505854346973
 31
0.0
  0
HATCH
  5
2B876
330
1F
100
AcDbEntity
  8
gaikei
100
AcDbHatch
 10
0.0
 20
0.0
 30
0.0
210
0.0
220
0.0
230
1.0
  2
SOLID
 70
     1
 71
     0
 91
        1
 92
        7
 72
     0
 73
     1
 93
        8
 10
460.2285331297344
 20
-2887.505854346971
 10
455.2285331297343
 20
-2887.505854346971
 10
455.2285331297341
 20
-2894.505854346972
 10
453.2285331297339
 20
-2896.505854346972
 10
430.2285331297357
 20
-2896.505854346973
 10
420.2285331297345
 20
-2898.505854346972
 10
420.2285331297345
 20
-2899.505854346972
 10
460.2285331297344
 20
-2899.505854346972
 97
        0
 75
     0
 76
     1
 47
0.1260192669591652
 98
        2
 10
458.1024502037928
 20
-2897.632512941987
 10
451.8886166284716
 20
-2891.01077509329
450
        1
451
        0
460
0.0
461
0.0
452
        1
462
1.0
453
        2
463
0.0
 63
     5
421
      255
463
1.0
 63
     7
421
 16777215
470
CYLINDER
1001
ACAD
1010
0.0
1020
0.0
1030
0.0
  0
LINE
  5
2B877
330
1F
100
AcDbEntity
  8
gaikei
100
AcDbLine
 10
460.2285331297342
 20
-2957.505854346972
 30
0.0
 11
460.2285331297344
 21
-2887.505854346971
 31
0.0
  0
LINE
  5
2B878
330
1F
100
AcDbEntity
  8
gaikei
100
AcDbLine
 10
420.2285331297345
 20
-2898.505854346972
 30
0.0
 11
430.2285331297346
 21
-2896.505854346973
 31
0.0
  0
LINE
  5
2B879
102
{ACAD_REACTORS
330
2D526
102
}
330
1F
100
AcDbEntity
  8
gaikei
100
AcDbLine
 10
420.2285331297345
 20
-2899.505854346972
 30
0.0
 11
460.2285331297344
 21
-2899.505854346972
 31
0.0
  0
LINE
  5
2B87A
102
{ACAD_REACTORS
330
2D4DB
102
}
330
1F
100
AcDbEntity
  8
gaikei
100
AcDbLine
 10
460.2285331297344
 20
-2887.505854346971
 30
0.0
 11
455.2285331297343
 21
-2887.505854346971
 31
0.0
  0
LINE
  5
2B87B
330
1F
100
AcDbEntity
  8
gaikei
100
AcDbLine
 10
455.2285331297343
 20
-2887.505854346971
 30
0.0
 11
455.2285331297343
 21
-2894.505854346972
 31
0.0
  0
LINE
  5
2B87C
330
1F
100
AcDbEntity
  8
gaikei
100
AcDbLine
 10
453.2285331297344
 20
-2896.505854346972
 30
0.0
 11
455.2285331297343
 21
-2894.505854346972
 31
0.0
  0
LINE
  5
2B87D
330
1F
100
AcDbEntity
  8
gaikei
100
AcDbLine
 10
430.2285331297343
 20
-2896.505854346973
 30
0.0
 11
453.2285331297344
 21
-2896.505854346972
 31
0.0
  0
LINE
  5
2B87E
330
1F
100
AcDbEntity
  8
gaikei
100
AcDbLine
 10
420.2285331297345
 20
-2898.505854346972
 30
0.0
 11
420.2285331297344
 21
-2957.505854346972
 31
0.0
  0
LINE
  5
2B880
102
{ACAD_REACTORS
330
2D623
102
}
330
1F
100
AcDbEntity
  8
gaikei
100
AcDbLine
 10
460.2285331297342
 20
-2957.505854346972
 30
0.0
 11
460.2285331297344
 21
-3027.505854346982
 31
0.0
  0
LINE
  5
2B881
330
1F
100
AcDbEntity
  8
hasen
100
AcDbLine
 10
420.2285331297345
 20
-3016.505854346982
 30
0.0
 11
430.2285331297346
 21
-3018.505854346982
 31
0.0
  0
LINE
  5
2B882
102
{ACAD_REACTORS
330
2D526
102
}
330
1F
100
AcDbEntity
  8
hasen
100
AcDbLine
 10
420.2285331297345
 20
-3015.505854346982
 30
0.0
 11
460.2285331297344
 21
-3015.505854346982
 31
0.0
  0
LINE
  5
2B883
102
{ACAD_REACTORS
330
2D4DB
102
}
330
1F
100
AcDbEntity
  8
gaikei
100
AcDbLine
 10
460.2285331297344
 20
-3027.505854346982
 30
0.0
 11
455.2285331297343
 21
-3027.505854346982
 31
0.0
  0
LINE
  5
2B884
102
{ACAD_REACTORS
330
2D5F3
330
2D60B
102
}
330
1F
100
AcDbEntity
  8
gaikei
100
AcDbLine
 10
455.2285331297343
 20
-3027.505854346982
 30
0.0
 11
455.2285331297343
 21
-2957.505854346972
 31
0.0
  0
LINE
  5
2B885
330
1F
100
AcDbEntity
  8
hasen
100
AcDbLine
 10
453.2285331297344
 20
-3018.505854346982
 30
0.0
 11
455.2285331297343
 21
-3020.505854346982
 31
0.0
  0
LINE
  5
2B886
102
{ACAD_REACTORS
330
2D693
102
}
330
1F
100
AcDbEntity
  8
hasen
100
AcDbLine
 10
430.2285331297343
 20
-3018.505854346982
 30
0.0
 11
453.2285331297344
 21
-3018.505854346982
 31
0.0
  0
LINE
  5
2B887
330
1F
100
AcDbEntity
  8
hasen
100
AcDbLine
 10
420.2285331297345
 20
-3016.505854346982
 30
0.0
 11
420.2285331297345
 21
-2957.505854346972
 31
0.0
  0
LINE
  5
2B888
102
{ACAD_REACTORS
330
2B9AC
102
}
330
1F
100
AcDbEntity
  8
gaikei
100
AcDbLine
 10
652.3740180247584
 20
-2862.505854346967
 30
0.0
 11
652.3740180247584
 21
-2868.505854346962
 31
0.0
  0
LINE
  5
2B889
102
{ACAD_REACTORS
330
2B9AC
102
}
330
1F
100
AcDbEntity
  8
gaikei
100
AcDbLine
 10
627.3740180247584
 20
-2867.505854346964
 30
0.0
 11
602.3740180247582
 21
-2867.505854346965
 31
0.0
  0
LINE
  5
2B88A
102
{ACAD_REACTORS
330
2BA03
102
}
330
1F
100
AcDbEntity
  8
gaikei
100
AcDbLine
 10
602.3740180247582
 20
-2867.505854346962
 30
0.0
 11
602.3740180247584
 21
-2867.50585434696
 31
0.0
  0
LINE
  5
2B88B
102
{ACAD_REACTORS
330
2B9AC
102
}
330
1F
100
AcDbEntity
  8
gaikei
100
AcDbLine
 10
657.3740180247582
 20
-2862.505854346965
 30
0.0
 11
652.3740180247584
 21
-2862.505854346965
 31
0.0
  0
LINE
  5
2B88C
330
1F
100
AcDbEntity
  8
gaikei
100
AcDbLine
 10
657.3740180247582
 20
-2868.505854346965
 30
0.0
 11
657.3740180247582
 21
-2862.505854346965
 31
0.0
  0
LINE
  5
2B88D
102
{ACAD_REACTORS
330
2B9AC
102
}
330
1F
100
AcDbEntity
  8
gaikei
100
AcDbLine
 10
654.3740180247582
 20
-2871.005854346965
 30
0.0
 11
657.3740180247582
 21
-2868.505854346965
 31
0.0
  0
LINE
  5
2B88E
102
{ACAD_REACTORS
330
2B9AC
102
}
330
1F
100
AcDbEntity
  8
gaikei
100
AcDbLine
 10
622.3740180247585
 20
-2871.005854346966
 30
0.0
 11
654.3740180247582
 21
-2871.005854346965
 31
0.0
  0
LINE
  5
2B88F
102
{ACAD_REACTORS
330
2B9AC
102
}
330
1F
100
AcDbEntity
  8
gaikei
100
AcDbLine
 10
652.3740180247584
 20
-2868.505854346962
 30
0.0
 11
627.3740180247584
 21
-2868.505854346962
 31
0.0
  0
LINE
  5
2B890
102
{ACAD_REACTORS
330
2B9AC
102
}
330
1F
100
AcDbEntity
  8
gaikei
100
AcDbLine
 10
627.3740180247584
 20
-2868.505854346962
 30
0.0
 11
627.3740180247584
 21
-2866.505854346962
 31
0.0
  0
LINE
  5
2B891
102
{ACAD_REACTORS
330
2B9AC
330
2BA1B
102
}
330
1F
100
AcDbEntity
  8
gaikei
100
AcDbLine
 10
602.3740180247582
 20
-2867.505854346965
 30
0.0
 11
602.3740180247626
 21
-2957.505854346972
 31
0.0
  0
LINE
  5
2B892
102
{ACAD_REACTORS
330
2B9AC
102
}
330
1F
100
AcDbEntity
  8
gaikei
100
AcDbLine
 10
622.3740180247585
 20
-2871.005854346966
 30
0.0
 11
622.3740180247585
 21
-2874.005854346965
 31
0.0
  0
LINE
  5
2B893
102
{ACAD_REACTORS
330
2B9AC
102
}
330
1F
100
AcDbEntity
  8
gaikei
100
AcDbLine
 10
611.8740180247582
 20
-2875.89682179458
 30
0.0
 11
614.6669112435716
 21
-2873.712961128154
 31
0.0
  0
ARC
  5
2B894
102
{ACAD_REACTORS
330
2B9AC
102
}
330
1F
100
AcDbEntity
  8
gaikei
100
AcDbCircle
 10
613.9598044623853
 20
-2873.005854346967
 30
0.0
 40
1.0
100
AcDbArc
 50
314.9999999999816
 51
90.0
  0
LINE
  5
2B895
102
{ACAD_REACTORS
330
2B9AC
330
2BA1B
102
}
330
1F
100
AcDbEntity
  8
gaikei
100
AcDbLine
 10
613.9598044623853
 20
-2872.005854346967
 30
0.0
 11
602.3740180247582
 21
-2872.005854346966
 31
0.0
  0
LINE
  5
2B896
102
{ACAD_REACTORS
330
2B9AC
102
}
330
1F
100
AcDbEntity
  8
gaikei
100
AcDbLine
 10
611.8740180247584
 20
-2875.89682179458
 30
0.0
 11
611.8740180247469
 21
-2957.505854346971
 31
0.0
  0
LINE
  5
2B897
102
{ACAD_REACTORS
330
2B9AC
102
}
330
1F
100
AcDbEntity
  8
gaikei
100
AcDbLine
 10
611.8740180247582
 20
-2877.492131957938
 30
0.0
 11
618.1220498174464
 21
-2874.814404046785
 31
0.0
  0
LINE
  5
2B898
102
{ACAD_REACTORS
330
2B9AC
102
}
330
1F
100
AcDbEntity
  8
gaikei
100
AcDbLine
 10
622.3740180248706
 20
-2874.005854346965
 30
0.0
 11
622.061242803239
 21
-2874.005854346965
 31
0.0
  0
ARC
  5
2B899
102
{ACAD_REACTORS
330
2B9AC
102
}
330
1F
100
AcDbEntity
  8
gaikei
100
AcDbCircle
 10
622.061242803239
 20
-2884.005854346966
 30
0.0
 40
10.0
100
AcDbArc
 50
90.0
 51
113.1985905136534
  0
LINE
  5
2B89A
330
1F
100
AcDbEntity
  8
gaikei
100
AcDbLine
 10
652.3740180247584
 20
-3052.505854346978
 30
0.0
 11
652.3740180247584
 21
-2957.505854346971
 31
0.0
  0
LINE
  5
2B89B
330
1F
100
AcDbEntity
  8
gaikei
100
AcDbLine
 10
607.3740180247585
 20
-3047.505854346979
 30
0.0
 11
602.3740180247582
 21
-3047.50585434698
 31
0.0
  0
LINE
  5
2B89C
102
{ACAD_REACTORS
330
2BA03
102
}
330
1F
100
AcDbEntity
  8
gaikei
100
AcDbLine
 10
602.3740180247582
 20
-3047.505854346983
 30
0.0
 11
602.3740180247584
 21
-3047.505854346985
 31
0.0
  0
LINE
  5
2B89D
102
{ACAD_REACTORS
330
2B9AC
102
}
330
1F
100
AcDbEntity
  8
gaikei
100
AcDbLine
 10
657.3740180247582
 20
-3052.50585434698
 30
0.0
 11
652.3740180247584
 21
-3052.50585434698
 31
0.0
  0
LINE
  5
2B89E
102
{ACAD_REACTORS
330
2D56F
102
}
330
1F
100
AcDbEntity
  8
gaikei
100
AcDbLine
 10
657.3740180247582
 20
-3046.505854346979
 30
0.0
 11
657.3740180247582
 21
-3052.50585434698
 31
0.0
  0
LINE
  5
2B89F
330
1F
100
AcDbEntity
  8
hasen
100
AcDbLine
 10
654.3740180247582
 20
-3044.005854346979
 30
0.0
 11
657.3740180247582
 21
-3046.505854346979
 31
0.0
  0
LINE
  5
2B8A0
330
1F
100
AcDbEntity
  8
hasen
100
AcDbLine
 10
622.3740180247585
 20
-3044.005854346979
 30
0.0
 11
654.3740180247582
 21
-3044.005854346979
 31
0.0
  0
LINE
  5
2B8A1
330
1F
100
AcDbEntity
  8
hasen
100
AcDbLine
 10
647.3740180247585
 20
-3046.505854346983
 30
0.0
 11
627.3740180247584
 21
-3046.505854346983
 31
0.0
  0
LINE
  5
2B8A2
330
1F
100
AcDbEntity
  8
gaikei
100
AcDbLine
 10
627.3740180247584
 20
-2957.505854346971
 30
0.0
 11
627.3740180247584
 21
-3048.505854346983
 31
0.0
  0
LINE
  5
2B8A3
102
{ACAD_REACTORS
330
2B9AC
102
}
330
1F
100
AcDbEntity
  8
gaikei
100
AcDbLine
 10
602.3740180247582
 20
-3047.50585434698
 30
0.0
 11
602.3740180247629
 21
-2957.505854346972
 31
0.0
  0
LINE
  5
2B8A4
330
1F
100
AcDbEntity
  8
hasen
100
AcDbLine
 10
622.3740180247585
 20
-3044.005854346979
 30
0.0
 11
622.3740180247585
 21
-3041.005854346979
 31
0.0
  0
LINE
  5
2B8A5
330
1F
100
AcDbEntity
  8
hasen
100
AcDbLine
 10
611.8740180247582
 20
-3039.114886899365
 30
0.0
 11
614.6669112435716
 21
-3041.298747565791
 31
0.0
  0
ARC
  5
2B8A6
330
1F
100
AcDbEntity
  8
hasen
100
AcDbCircle
 10
613.9598044623853
 20
-3042.005854346978
 30
0.0
 40
1.0
100
AcDbArc
 50
270.0
 51
45.0000000000161
  0
LINE
  5
2B8A7
102
{ACAD_REACTORS
330
2BA1B
102
}
330
1F
100
AcDbEntity
  8
hasen
100
AcDbLine
 10
613.9598044623853
 20
-3043.005854346978
 30
0.0
 11
602.3740180247582
 21
-3043.005854346979
 31
0.0
  0
LINE
  5
2B8A8
330
1F
100
AcDbEntity
  8
hasen
100
AcDbLine
 10
611.8740180247584
 20
-3039.114886899364
 30
0.0
 11
611.8740180247582
 21
-3037.519576736006
 31
0.0
  0
LINE
  5
2B8A9
330
1F
100
AcDbEntity
  8
hasen
100
AcDbLine
 10
611.8740180247582
 20
-3037.519576736006
 30
0.0
 11
618.1220498174464
 21
-3040.19730464716
 31
0.0
  0
LINE
  5
2B8AA
102
{ACAD_REACTORS
330
2D587
102
}
330
1F
100
AcDbEntity
  8
hasen
100
AcDbLine
 10
622.3740180248706
 20
-3041.005854346979
 30
0.0
 11
622.061242803239
 21
-3041.005854346979
 31
0.0
  0
ARC
  5
2B8AB
330
1F
100
AcDbEntity
  8
hasen
100
AcDbCircle
 10
622.061242803239
 20
-3031.005854346979
 30
0.0
 40
10.0
100
AcDbArc
 50
246.8014094863395
 51
270.0
  0
LINE
  5
2B8AC
330
1F
100
AcDbEntity
  8
gaikei
100
AcDbLine
 10
657.3740180247582
 20
-2868.505854346965
 30
0.0
 11
657.3740180247582
 21
-2862.505854346965
 31
0.0
  0
HATCH
  5
2B8AD
330
1F
100
AcDbEntity
  8
gaikei
100
AcDbHatch
 10
0.0
 20
0.0
 30
0.0
210
0.0
220
0.0
230
1.0
  2
SOLID
 70
     1
 71
     0
 91
        1
 92
        7
 72
     0
 73
     1
 93
        8
 10
662.3740180247582
 20
-2862.505854346965
 10
657.3740180247582
 20
-2862.505854346965
 10
657.3740180247584
 20
-2869.005854346966
 10
655.3740180247585
 20
-2871.005854346966
 10
632.3740180247587
 20
-2871.005854346965
 10
622.3740180247585
 20
-2873.005854346966
 10
622.3740180247585
 20
-2874.005854346965
 10
662.3740180247582
 20
-2874.005854346965
 97
        0
 75
     0
 76
     1
 47
0.1009272093164283
 98
        2
 10
659.8817224841736
 20
-2870.915642418924
 10
659.0341015234955
 20
-2866.010775093283
450
        1
451
        0
460
0.0
461
0.0
452
        1
462
1.0
453
        2
463
0.0
 63
     5
421
      255
463
1.0
 63
     7
421
 16777215
470
CYLINDER
1001
ACAD
1010
0.0
1020
0.0
1030
0.0
  0
LINE
  5
2B8AE
330
1F
100
AcDbEntity
  8
gaikei
100
AcDbLine
 10
662.3740180247582
 20
-2957.505854346972
 30
0.0
 11
662.3740180247582
 21
-2862.505854346965
 31
0.0
  0
LINE
  5
2B8AF
102
{ACAD_REACTORS
330
2B9AC
102
}
330
1F
100
AcDbEntity
  8
gaikei
100
AcDbLine
 10
622.3740180247585
 20
-2957.505854346971
 30
0.0
 11
622.3740180247585
 21
-2873.005854346966
 31
0.0
  0
LINE
  5
2B8B0
330
1F
100
AcDbEntity
  8
gaikei
100
AcDbLine
 10
622.3740180247585
 20
-2873.005854346966
 30
0.0
 11
632.3740180247584
 21
-2871.005854346966
 31
0.0
  0
LINE
  5
2B8B1
102
{ACAD_REACTORS
330
2D4F3
102
}
330
1F
100
AcDbEntity
  8
gaikei
100
AcDbLine
 10
622.3740180247585
 20
-2874.005854346965
 30
0.0
 11
662.3740180247582
 21
-2874.005854346965
 31
0.0
  0
LINE
  5
2B8B2
102
{ACAD_REACTORS
330
2BA33
102
}
330
1F
100
AcDbEntity
  8
gaikei
100
AcDbLine
 10
662.3740180247582
 20
-2862.505854346965
 30
0.0
 11
657.3740180247582
 21
-2862.505854346965
 31
0.0
  0
LINE
  5
2B8B3
102
{ACAD_REACTORS
330
2B9AC
102
}
330
1F
100
AcDbEntity
  8
gaikei
100
AcDbLine
 10
657.3740180247582
 20
-2862.505854346965
 30
0.0
 11
657.3740180247584
 21
-2869.005854346966
 31
0.0
  0
LINE
  5
2B8B4
330
1F
100
AcDbEntity
  8
gaikei
100
AcDbLine
 10
655.3740180247585
 20
-2871.005854346966
 30
0.0
 11
657.3740180247584
 21
-2869.005854346966
 31
0.0
  0
LINE
  5
2B8B5
102
{ACAD_REACTORS
330
2D656
102
}
330
1F
100
AcDbEntity
  8
gaikei
100
AcDbLine
 10
632.3740180247582
 20
-2871.005854346966
 30
0.0
 11
655.3740180247585
 21
-2871.005854346966
 31
0.0
  0
LINE
  5
2B8B6
330
1F
100
AcDbEntity
  8
gaikei
100
AcDbLine
 10
657.3740180247582
 20
-3046.505854346976
 30
0.0
 11
657.3740180247582
 21
-3052.505854346977
 31
0.0
  0
LINE
  5
2B8B8
330
1F
100
AcDbEntity
  8
gaikei
100
AcDbLine
 10
662.3740180247582
 20
-2957.505854346972
 30
0.0
 11
662.3740180247582
 21
-3052.505854346977
 31
0.0
  0
LINE
  5
2B8B9
330
1F
100
AcDbEntity
  8
hasen
100
AcDbLine
 10
622.3740180247585
 20
-3041.005854346976
 30
0.0
 11
622.3740180247585
 21
-3042.005854346976
 31
0.0
  0
LINE
  5
2B8BA
330
1F
100
AcDbEntity
  8
hasen
100
AcDbLine
 10
622.3740180247585
 20
-3042.005854346976
 30
0.0
 11
632.3740180247584
 21
-3044.005854346976
 31
0.0
  0
LINE
  5
2B8BB
102
{ACAD_REACTORS
330
2D4F3
102
}
330
1F
100
AcDbEntity
  8
hasen
100
AcDbLine
 10
622.3740180247585
 20
-3041.005854346976
 30
0.0
 11
662.3740180247582
 21
-3041.005854346976
 31
0.0
  0
LINE
  5
2B8BC
102
{ACAD_REACTORS
330
2BA33
102
}
330
1F
100
AcDbEntity
  8
gaikei
100
AcDbLine
 10
662.3740180247582
 20
-3052.505854346977
 30
0.0
 11
657.3740180247582
 21
-3052.505854346977
 31
0.0
  0
LINE
  5
2B8BD
102
{ACAD_REACTORS
330
2D59F
102
}
330
1F
100
AcDbEntity
  8
gaikei
100
AcDbLine
 10
657.3740180247582
 20
-3052.505854346977
 30
0.0
 11
657.3740180247614
 21
-2957.505854346971
 31
0.0
  0
LINE
  5
2B8BE
330
1F
100
AcDbEntity
  8
hasen
100
AcDbLine
 10
655.3740180247585
 20
-3044.005854346976
 30
0.0
 11
657.3740180247584
 21
-3046.005854346976
 31
0.0
  0
LINE
  5
2B8BF
102
{ACAD_REACTORS
330
2D656
102
}
330
1F
100
AcDbEntity
  8
hasen
100
AcDbLine
 10
632.3740180247582
 20
-3044.005854346976
 30
0.0
 11
655.3740180247585
 21
-3044.005854346976
 31
0.0
  0
LINE
  5
2B97B
330
1F
100
AcDbEntity
  8
gaikei
100
AcDbLine
 10
647.3740180247585
 20
-2866.505854346962
 30
0.0
 11
627.3740180247584
 21
-2866.505854346962
 31
0.0
  0
LINE
  5
2B97C
330
1F
100
AcDbEntity
  8
gaikei
100
AcDbLine
 10
647.3740180247585
 20
-3048.505854346983
 30
0.0
 11
627.3740180247584
 21
-3048.505854346983
 31
0.0
  0
LINE
  5
2B985
330
1F
100
AcDbEntity
  8
gaikei
100
AcDbLine
 10
445.2285331297347
 20
-3023.505854346977
 30
0.0
 11
425.2285331297346
 21
-3023.505854346977
 31
0.0
  0
HATCH
  5
2B9AC
330
1F
100
AcDbEntity
  8
hatch
100
AcDbHatch
 10
0.0
 20
0.0
 30
0.0
210
0.0
220
0.0
230
1.0
  2
ANSI31
 70
     0
 71
     1
 91
        1
 92
        7
 72
     1
 73
     1
 93
       18
 10
602.3740180247584
 20
-2867.505854346965
 42
0.0
 10
602.3740180247585
 20
-2872.005854346966
 42
0.0
 10
613.9598044623853
 20
-2872.005854346967
 42
-0.6681786379189762
 10
614.6669112435716
 20
-2873.712961128154
 42
0.0
 10
611.8740180247583
 20
-2875.89682179458
 42
0.0
 10
611.8740180247581
 20
-2877.492131957938
 42
0.0
 10
618.1220498174464
 20
-2874.814404046785
 42
-0.1015700823222555
 10
622.061242803239
 20
-2874.005854346965
 42
0.0
 10
622.3740180247585
 20
-2874.005854346965
 42
0.0
 10
622.3740180247585
 20
-2873.005854346966
 42
0.0
 10
622.3740180247585
 20
-2871.005854346965
 42
0.0
 10
654.3740180247582
 20
-2871.005854346965
 42
0.0
 10
657.3740180247583
 20
-2868.505854346965
 42
0.0
 10
657.3740180247583
 20
-2862.505854346966
 42
0.0
 10
652.3740180247584
 20
-2862.505854346965
 42
0.0
 10
652.3740180247584
 20
-2868.505854346961
 42
0.0
 10
627.3740180247584
 20
-2868.505854346961
 42
0.0
 10
627.3740180247584
 20
-2867.505854346964
 42
0.0
 97
       18
330
2B889
330
2B891
330
2B895
330
2B894
330
2B893
330
2B896
330
2B897
330
2B899
330
2B898
330
2B8AF
330
2B892
330
2B88E
330
2B88D
330
2B8B3
330
2B88B
330
2B888
330
2B88F
330
2B890
 75
     0
 76
     1
 52
0.0
 41
0.5
 77
     0
 78
     1
 53
45.0
 43
0.0
 44
0.0
 45
-1.122532015133643
 46
1.122532015133644
 79
     0
 47
0.5177781299330429
 98
        2
 10
616.0917794084234
 20
-2868.481433921234
 10
614.537510247952
 20
-3044.526001587914
1001
ACAD
1010
0.0
1020
0.0
1030
0.0
  0
HATCH
  5
2B9D4
330
1F
100
AcDbEntity
  8
hatch
100
AcDbHatch
 10
0.0
 20
0.0
 30
0.0
210
0.0
220
0.0
230
1.0
  2
ANSI31
 70
     0
 71
     0
 91
        1
 92
        7
 72
     1
 73
     1
 93
       19
 10
420.2285331297344
 20
-2896.505854346973
 42
0.0
 10
452.2285331297346
 20
-2896.505854346971
 42
0.0
 10
455.2285331297343
 20
-2893.505854346971
 42
0.0
 10
455.2285331297345
 20
-2887.505854346971
 42
0.0
 10
450.2285331297346
 20
-2887.505854346971
 42
0.0
 10
450.2285331297343
 20
-2892.505854346968
 42
0.0
 10
450.2285331297346
 20
-2893.505854346967
 42
0.0
 10
425.2285331297346
 20
-2893.505854346967
 42
0.0
 10
425.2285331297346
 20
-2892.505854346968
 42
0.0
 10
400.2285331297344
 20
-2892.505854346972
 42
0.0
 10
400.2285331297344
 20
-2897.505854346972
 42
0.0
 10
411.8143195673614
 20
-2897.505854346974
 42
-0.6681786379189772
 10
412.5214263485477
 20
-2899.21296112816
 42
0.0
 10
409.7285331297346
 20
-2901.396821794586
 42
0.0
 10
409.7285331297342
 20
-2902.992131957944
 42
0.0
 10
415.9765649224225
 20
-2900.314404046792
 42
-0.1015700823222559
 10
419.9157579082152
 20
-2899.505854346972
 42
0.0
 10
420.2285331297345
 20
-2899.505854346972
 42
0.0
 10
420.2285331297345
 20
-2898.505854346972
 42
0.0
 97
        0
 75
     0
 76
     1
 52
0.0
 41
0.5
 77
     0
 78
     1
 53
45.0
 43
-445.4869058448275
 44
0.0
 45
-1.122532015133643
 46
1.122532015133644
 79
     0
 47
0.5001132052697442
 98
        2
 10
418.8939904760445
 20
-2894.873659955556
 10
414.8906731709976
 20
-3019.401859657664
1001
ACAD
1010
0.0
1020
0.0
1030
0.0
  0
LINE
  5
2B9D6
330
1F
100
AcDbEntity
  8
hasen
100
AcDbLine
 10
611.8740180247584
 20
-3039.114886899362
 30
0.0
 11
611.8740180247469
 21
-2957.505854346971
 31
0.0
  0
LINE
  5
2B9D7
330
1F
100
AcDbEntity
  8
hasen
100
AcDbLine
 10
622.3740180247585
 20
-2957.505854346971
 30
0.0
 11
622.3740180247585
 21
-3042.005854346977
 31
0.0
  0
LEADER
  5
2B9E4
330
1F
100
AcDbEntity
  8
sunpo
100
AcDbLeader
  3
DIM
 73
     0
 74
     0
 40
3.75
 41
19.47499999999999
 76
     3
 10
662.0486840530511
 20
-2869.317651803558
 30
0.0
 10
679.9522041694603
 20
-2851.335763735504
 30
0.0
 10
681.7522041694603
 20
-2851.335763735504
 30
0.0
340
2B9E5
1001
ACAD
1000
DSTYLE
1002
{
1070
   341
1005
0
1070
   147
1040
0.3
1070
    77
1070
     1
1002
}
  0
MTEXT
  5
2B9E5
102
{ACAD_REACTORS
330
2B9E4
102
}
330
1F
100
AcDbEntity
  8
sunpo
100
AcDbMText
 10
682.0522041694602
 20
-2851.035763735504
 30
0.0
 40
3.75
 41
0.0
 71
     7
 72
     1
  1
{\W0.95;スペーサー}
  7
DIM
 73
     1
 44
1.0
  0
LEADER
  5
2B9E6
330
1F
100
AcDbEntity
  8
sunpo
100
AcDbLeader
  3
DIM
 73
     0
 40
3.75
 41
15.9125
 76
     3
 10
654.8740180247583
 20
-2862.505854346965
 30
0.0
 10
648.75331089479
 20
-2849.962440906031
 30
0.0
 10
647.2620137737791
 20
-2849.962440906031
 30
0.0
340
2B9E7
1001
ACAD
1000
DSTYLE
1002
{
1070
   341
1005
0
1070
   147
1040
0.3
1070
    77
1070
     1
1002
}
  0
MTEXT
  5
2B9E7
102
{ACAD_REACTORS
330
2B9E6
102
}
330
1F
100
AcDbEntity
  8
sunpo
100
AcDbMText
 10
646.9620137737791
 20
-2849.662440906031
 30
0.0
 40
3.75
 41
0.0
 71
     9
 72
     1
  1
{\W0.95;本体ゴム}
  7
DIM
 73
     1
 44
1.0
  0
LEADER
  5
2B9E8
330
1F
100
AcDbEntity
  8
sunpo
100
AcDbLeader
  3
DIM
 73
     0
 40
3.75
 41
15.675
 76
     3
 10
639.8740180247584
 20
-2866.505854346961
 30
0.0
 10
631.765436897444
 20
-2855.287335788228
 30
0.0
 10
627.1602471938172
 20
-2855.287335788228
 30
0.0
340
2B9EB
1001
ACAD
1000
DSTYLE
1002
{
1070
   341
1005
0
1002
}
  0
MTEXT
  5
2B9EB
102
{ACAD_REACTORS
330
2B9E8
102
}
330
1F
100
AcDbEntity
  8
sunpo
100
AcDbMText
 10
626.8602471938172
 20
-2854.987335788228
 30
0.0
 40
3.75
 41
0.0
 71
     9
 72
     1
  1
{\W0.95;シール材}
  7
DIM
 73
     1
 44
1.0
  0
DIMENSION
  5
2B9EC
102
{ACAD_XDICTIONARY
360
2B9F9
102
}
102
{ACAD_REACTORS
330
2BA03
102
}
330
1F
100
AcDbEntity
  8
sunpo
100
AcDbDimension
  2
*D885
 10
563.6013688402272
 20
-2867.50585434696
 30
0.0
 11
562.0513688402277
 21
-2957.505854346972
 31
0.0
 70
    32
 71
     5
 42
180.0000000000245
  3
DIM
100
AcDbAlignedDimension
 13
602.3740180247584
 23
-3047.505854346985
 33
0.0
 14
602.3740180247584
 24
-2867.50585434696
 34
0.0
 50
90.0
100
AcDbRotatedDimension
1001
ACAD
1000
DSTYLE
1002
{
1070
     3
1000
\U+03C6<>
1070
   173
1070
     1
1070
   341
1005
0
1070
   342
1005
0
1002
}
  0
DIMENSION
  5
2BA04
102
{ACAD_XDICTIONARY
360
2BA11
102
}
102
{ACAD_REACTORS
330
2BA1B
102
}
330
1F
100
AcDbEntity
  8
sunpo
100
AcDbDimension
  2
*D886
 10
570.4831716863554
 20
-3043.005854346979
 30
0.0
 11
568.9331716863559
 21
-2957.505854346972
 31
0.0
 70
    32
 71
     5
 42
171.0000000000127
  3
DIM
100
AcDbAlignedDimension
 13
602.3740180247584
 23
-2872.005854346966
 33
0.0
 14
602.3740180247582
 24
-3043.005854346979
 34
0.0
 50
90.0
100
AcDbRotatedDimension
1001
ACAD
1000
DSTYLE
1002
{
1070
     3
1000
\U+03C6<>
1070
   173
1070
     1
1070
   341
1005
0
1070
   342
1005
0
1002
}
  0
DIMENSION
  5
2BA1C
102
{ACAD_XDICTIONARY
360
2BA29
102
}
102
{ACAD_REACTORS
330
2BA33
102
}
330
1F
100
AcDbEntity
  8
sunpo
100
AcDbDimension
  2
*D887
 10
692.1712019581973
 20
-3052.505854346977
 30
0.0
 11
690.6212019581978
 21
-2957.505854346971
 31
0.0
 70
    32
 71
     5
 42
190.0000000000114
  3
DIM
100
AcDbAlignedDimension
 13
662.3740180247582
 23
-2862.505854346965
 33
0.0
 14
662.3740180247582
 24
-3052.505854346977
 34
0.0
 50
90.0
100
AcDbRotatedDimension
1001
ACAD
1000
DSTYLE
1002
{
1070
     3
1000
\U+03C6<>
1070
   343
1005
0
1070
   342
1005
0
1070
   173
1070
     1
1070
   344
1005
0
1070
   341
1005
0
1002
}
  0
DIMENSION
  5
2D494
102
{ACAD_XDICTIONARY
360
2D4A1
102
}
102
{ACAD_REACTORS
330
2D4AB
102
}
330
1F
100
AcDbEntity
  8
sunpo
100
AcDbDimension
  2
*D889
 10
371.6775066415467
 20
-2892.505854346966
 30
0.0
 11
370.1275066415471
 21
-2957.505854346969
 31
0.0
 70
    32
 71
     5
 42
130.0000000000073
  3
DIM
100
AcDbAlignedDimension
 13
400.2285331297343
 23
-3022.505854346973
 33
0.0
 14
400.2285331297346
 24
-2892.505854346966
 34
0.0
 50
90.0
100
AcDbRotatedDimension
  0
DIMENSION
  5
2D4AC
102
{ACAD_XDICTIONARY
360
2D4B9
102
}
102
{ACAD_REACTORS
330
2D4C3
102
}
330
1F
100
AcDbEntity
  8
sunpo
100
AcDbDimension
  2
*D890
 10
380.9773154670475
 20
-3017.505854346973
 30
0.0
 11
379.4273154670479
 21
-2957.505854346972
 31
0.0
 70
    32
 71
     5
 42
120.0
  3
DIM
100
AcDbAlignedDimension
 13
400.2285331297343
 23
-2897.505854346972
 33
0.0
 14
400.2285331297343
 24
-3017.505854346973
 34
0.0
 50
90.0
100
AcDbRotatedDimension
  0
DIMENSION
  5
2D4C4
102
{ACAD_XDICTIONARY
360
2D4D1
102
}
102
{ACAD_REACTORS
330
2D4DB
102
}
330
1F
100
AcDbEntity
  8
sunpo
100
AcDbDimension
  2
*D891
 10
491.2032236281084
 20
-3027.505854346982
 30
0.0
 11
489.6532236281088
 21
-2957.505854346977
 31
0.0
 70
    32
 71
     5
 42
140.0000000000104
  3
DIM
100
AcDbAlignedDimension
 13
460.2285331297344
 23
-2887.505854346971
 33
0.0
 14
460.2285331297344
 24
-3027.505854346982
 34
0.0
 50
90.0
100
AcDbRotatedDimension
1001
ACAD
1000
DSTYLE
1002
{
1070
     3
1000
\U+03C6<>
1070
   173
1070
     1
1002
}
  0
DIMENSION
  5
2D4DC
102
{ACAD_XDICTIONARY
360
2D4E9
102
}
102
{ACAD_REACTORS
330
2D4F3
102
}
330
1F
100
AcDbEntity
  8
sunpo
100
AcDbDimension
  2
*D892
 10
679.3252309272284
 20
-3041.005854346976
 30
0.0
 11
677.7752309272289
 21
-2957.505854346971
 31
0.0
 70
    32
 71
     5
 42
167.0000000000104
  3
DIM
100
AcDbAlignedDimension
 13
662.3740180247582
 23
-2874.005854346965
 33
0.0
 14
662.3740180247581
 24
-3041.005854346976
 34
0.0
 50
90.0
100
AcDbRotatedDimension
1001
ACAD
1000
DSTYLE
1002
{
1070
     3
1000
\U+03C6<>
1070
   173
1070
     1
1002
}
  0
DIMENSION
  5
2D50F
102
{ACAD_XDICTIONARY
360
2D51C
102
}
102
{ACAD_REACTORS
330
2D526
102
}
330
1F
100
AcDbEntity
  8
sunpo
100
AcDbDimension
  2
*D893
 10
478.611927174701
 20
-3015.505854346982
 30
0.0
 11
477.0619271747015
 21
-2957.505854346977
 31
0.0
 70
    32
 71
     5
 42
116.0000000000095
  3
DIM
100
AcDbAlignedDimension
 13
460.2285331297344
 23
-2899.505854346972
 33
0.0
 14
460.2285331297342
 24
-3015.505854346982
 34
0.0
 50
90.0
100
AcDbRotatedDimension
1001
ACAD
1000
DSTYLE
1002
{
1070
     3
1000
\U+03C6<>
1070
   173
1070
     1
1002
}
  0
DIMENSION
  5
2D54B
330
1F
100
AcDbEntity
  8
sunpo
100
AcDbDimension
  2
*D894
 10
662.3740180247582
 20
-3070.706830453501
 30
0.0
 11
632.3740180247583
 21
-3069.156830453501
 31
0.0
 70
    32
 71
     5
 42
59.99999999999977
  3
DIM
100
AcDbAlignedDimension
 13
602.3740180247584
 23
-3047.505854346985
 33
0.0
 14
662.3740180247582
 24
-3052.505854346977
 34
0.0
100
AcDbRotatedDimension
  0
DIMENSION
  5
2D558
102
{ACAD_XDICTIONARY
360
2D565
102
}
102
{ACAD_REACTORS
330
2D56F
102
}
330
1F
100
AcDbEntity
  8
sunpo
100
AcDbDimension
  2
*D895
 10
657.3740180247582
 20
-3064.561597073162
 30
0.0
 11
629.8740180247583
 21
-3063.011597073161
 31
0.0
 70
    32
 71
     5
 42
54.99999999999977
  3
DIM
100
AcDbAlignedDimension
 13
602.3740180247584
 23
-3047.505854346985
 33
0.0
 14
657.3740180247582
 24
-3052.50585434698
 34
0.0
100
AcDbRotatedDimension
  0
DIMENSION
  5
2D570
102
{ACAD_XDICTIONARY
360
2D57D
102
}
102
{ACAD_REACTORS
330
2D587
102
}
330
1F
100
AcDbEntity
  8
sunpo
100
AcDbDimension
  2
*D896
 10
622.3740180248706
 20
-3032.208242197336
 30
0.0
 11
642.3740180248143
 21
-3030.658242197335
 31
0.0
 70
    32
 71
     5
 42
39.99999999988757
  3
DIM
100
AcDbAlignedDimension
 13
662.3740180247581
 23
-3041.005854346976
 33
0.0
 14
622.3740180248706
 24
-3041.005854346979
 34
0.0
100
AcDbRotatedDimension
  0
DIMENSION
  5
2D588
102
{ACAD_XDICTIONARY
360
2D595
102
}
102
{ACAD_REACTORS
330
2D59F
102
}
330
1F
100
AcDbEntity
  8
sunpo
100
AcDbDimension
  2
*D897
 10
662.3740180247582
 20
-3064.561597073162
 30
0.0
 11
659.8740180247582
 21
-3063.011597073161
 31
0.0
 70
    33
 71
     5
 42
5.0
  3
DIM
100
AcDbAlignedDimension
 13
657.3740180247582
 23
-3052.505854346977
 33
0.0
 14
662.3740180247582
 24
-3052.505854346977
 34
0.0
  0
DIMENSION
  5
2D5C4
102
{ACAD_XDICTIONARY
360
2D5D1
102
}
102
{ACAD_REACTORS
330
2D5DB
102
}
330
1F
100
AcDbEntity
  8
sunpo
100
AcDbDimension
  2
*D898
 10
460.2285331297344
 20
-3047.003848182127
 30
0.0
 11
430.2285331297345
 21
-3045.453848182126
 31
0.0
 70
    32
 71
     5
 42
59.99999999999977
  3
DIM
100
AcDbAlignedDimension
 13
400.2285331297346
 23
-3022.505854346979
 33
0.0
 14
460.2285331297344
 24
-3027.505854346982
 34
0.0
100
AcDbRotatedDimension
  0
DIMENSION
  5
2D5DC
102
{ACAD_XDICTIONARY
360
2D5E9
102
}
102
{ACAD_REACTORS
330
2D5F3
102
}
330
1F
100
AcDbEntity
  8
sunpo
100
AcDbDimension
  2
*D899
 10
455.2285331297343
 20
-3040.830850816443
 30
0.0
 11
427.7285331297344
 21
-3039.280850816443
 31
0.0
 70
    32
 71
     5
 42
55.0
  3
DIM
100
AcDbAlignedDimension
 13
400.2285331297343
 23
-3022.505854346973
 33
0.0
 14
455.2285331297343
 24
-3027.505854346982
 34
0.0
100
AcDbRotatedDimension
  0
DIMENSION
  5
2D5F4
102
{ACAD_XDICTIONARY
360
2D601
102
}
102
{ACAD_REACTORS
330
2D60B
102
}
330
1F
100
AcDbEntity
  8
sunpo
100
AcDbDimension
  2
*D900
 10
460.2285331297344
 20
-3040.830850816443
 30
0.0
 11
457.7285331297344
 21
-3039.280850816443
 31
0.0
 70
    32
 71
     5
 42
5.0
  3
DIM
100
AcDbAlignedDimension
 13
455.2285331297343
 23
-3027.505854346982
 33
0.0
 14
460.2285331297344
 24
-3027.505854346982
 34
0.0
100
AcDbRotatedDimension
  0
DIMENSION
  5
2D60C
102
{ACAD_XDICTIONARY
360
2D619
102
}
102
{ACAD_REACTORS
330
2D623
102
}
330
1F
100
AcDbEntity
  8
sunpo
100
AcDbDimension
  2
*D901
 10
460.2285331297341
 20
-3004.742544375251
 30
0.0
 11
440.2285331297904
 21
-3003.192544375251
 31
0.0
 70
    32
 71
     5
 42
39.99999999988745
  3
DIM
100
AcDbAlignedDimension
 13
420.2285331298467
 23
-3015.505854346973
 33
0.0
 14
460.2285331297341
 24
-3015.505854346973
 34
0.0
100
AcDbRotatedDimension
  0
DIMENSION
  5
2D63F
102
{ACAD_XDICTIONARY
360
2D64C
102
}
102
{ACAD_REACTORS
330
2D656
102
}
330
1F
100
AcDbEntity
  8
sunpo
100
AcDbDimension
  2
*D902
 10
686.1662260006305
 20
-2871.005854346966
 30
0.0
 11
684.616226000631
 21
-2957.505854346971
 31
0.0
 70
    32
 71
     5
 42
173.00000000001
  3
DIM
100
AcDbAlignedDimension
 13
655.3740180247585
 23
-3044.005854346976
 33
0.0
 14
655.3740180247585
 24
-2871.005854346966
 34
0.0
 50
90.0
100
AcDbRotatedDimension
1001
ACAD
1000
DSTYLE
1002
{
1070
     3
1000
\U+03C6<>
1070
   173
1070
     1
1002
}
  0
DIMENSION
  5
2D67C
102
{ACAD_XDICTIONARY
360
2D689
102
}
102
{ACAD_REACTORS
330
2D693
102
}
330
1F
100
AcDbEntity
  8
sunpo
100
AcDbDimension
  2
*D903
 10
485.346227791404
 20
-2896.505854346969
 30
0.0
 11
483.7962277914045
 21
-2957.505854346976
 31
0.0
 70
    32
 71
     5
 42
122.0000000000118
  3
DIM
100
AcDbAlignedDimension
 13
453.2285331297344
 23
-3018.505854346982
 33
0.0
 14
453.2285331297365
 24
-2896.505854346969
 34
0.0
 50
90.0
100
AcDbRotatedDimension
1001
ACAD
1000
DSTYLE
1002
{
1070
     3
1000
\U+03C6<>
1070
   173
1070
     1
1002
}
  0
LEADER
  5
2D6A6
330
1F
100
AcDbEntity
  8
sunpo
100
AcDbLeader
  3
DIM
 73
     0
 74
     0
 40
3.75
 41
19.47499999999999
 76
     3
 10
459.9031991580273
 20
-2894.317651803564
 30
0.0
 10
477.8067192744365
 20
-2876.335763735511
 30
0.0
 10
479.6067192744364
 20
-2876.335763735511
 30
0.0
340
2D6A7
1001
ACAD
1000
DSTYLE
1002
{
1070
   341
1005
0
1070
   147
1040
0.3
1070
    77
1070
     1
1002
}
  0
MTEXT
  5
2D6A7
102
{ACAD_REACTORS
330
2D6A6
102
}
330
1F
100
AcDbEntity
  8
sunpo
100
AcDbMText
 10
479.9067192744364
 20
-2876.03576373551
 30
0.0
 40
3.75
 41
0.0
 71
     7
 72
     1
  1
{\W0.95;スペーサー}
  7
DIM
 73
     1
 44
1.0
  0
LEADER
  5
2D6A8
330
1F
100
AcDbEntity
  8
sunpo
100
AcDbLeader
  3
DIM
 73
     0
 40
3.75
 41
15.9125
 76
     3
 10
452.7285331297345
 20
-2887.505854346971
 30
0.0
 10
446.6078259997662
 20
-2874.962440906037
 30
0.0
 10
445.1165288787553
 20
-2874.962440906037
 30
0.0
340
2D6A9
1001
ACAD
1000
DSTYLE
1002
{
1070
   341
1005
0
1070
   147
1040
0.3
1070
    77
1070
     1
1002
}
  0
MTEXT
  5
2D6A9
102
{ACAD_REACTORS
330
2D6A8
102
}
330
1F
100
AcDbEntity
  8
sunpo
100
AcDbMText
 10
444.8165288787553
 20
-2874.662440906037
 30
0.0
 40
3.75
 41
0.0
 71
     9
 72
     1
  1
{\W0.95;本体ゴム}
  7
DIM
 73
     1
 44
1.0
  0
LEADER
  5
2D6AA
330
1F
100
AcDbEntity
  8
sunpo
100
AcDbLeader
  3
DIM
 73
     0
 40
3.75
 41
15.675
 76
     3
 10
437.7285331297346
 20
-2891.505854346968
 30
0.0
 10
429.6199520024202
 20
-2880.287335788235
 30
0.0
 10
425.0147622987934
 20
-2880.287335788235
 30
0.0
340
2D6AB
1001
ACAD
1000
DSTYLE
1002
{
1070
   341
1005
0
1002
}
  0
MTEXT
  5
2D6AB
102
{ACAD_REACTORS
330
2D6AA
102
}
330
1F
100
AcDbEntity
  8
sunpo
100
AcDbMText
 10
424.7147622987934
 20
-2879.987335788234
 30
0.0
 40
3.75
 41
0.0
 71
     9
 72
     1
  1
{\W0.95;シール材}
  7
DIM
 73
     1
 44
1.0
  0
LINE
  5
2D6B5
330
1F
100
AcDbEntity
  8
gaikei
100
AcDbLine
 10
647.3740180247585
 20
-2868.505854346962
 30
0.0
 11
647.3740180247585
 21
-2866.505854346962
 31
0.0
  0
LINE
  5
2D6B6
330
1F
100
AcDbEntity
  8
gaikei
100
AcDbLine
 10
627.3740180247584
 20
-2865.505854346964
 30
0.0
 11
607.3740180247584
 21
-2865.505854346964
 31
0.0
  0
LINE
  5
2D6B7
330
1F
100
AcDbEntity
  8
gaikei
100
AcDbLine
 10
627.3740180247584
 20
-2867.505854346964
 30
0.0
 11
627.3740180247584
 21
-2865.505854346964
 31
0.0
  0
LINE
  5
2D6B8
330
1F
100
AcDbEntity
  8
gaikei
100
AcDbLine
 10
607.3740180247584
 20
-2865.505854346964
 30
0.0
 11
607.3740180247585
 21
-2867.505854346965
 31
0.0
  0
LINE
  5
2D6B9
330
1F
100
AcDbEntity
  8
gaikei
100
AcDbLine
 10
647.3740180247585
 20
-3048.505854346979
 30
0.0
 11
627.3740180247584
 21
-3048.505854346979
 31
0.0
  0
LINE
  5
2D6BA
330
1F
100
AcDbEntity
  8
gaikei
100
AcDbLine
 10
647.3740180247585
 20
-2957.505854346971
 30
0.0
 11
647.3740180247585
 21
-3048.505854346979
 31
0.0
  0
LINE
  5
2D6BB
330
1F
100
AcDbEntity
  8
gaikei
100
AcDbLine
 10
627.3740180247584
 20
-3049.505854346977
 30
0.0
 11
607.3740180247584
 21
-3049.505854346977
 31
0.0
  0
LINE
  5
2D6BC
330
1F
100
AcDbEntity
  8
gaikei
100
AcDbLine
 10
627.3740180247584
 20
-3047.505854346977
 30
0.0
 11
627.3740180247584
 21
-3049.505854346977
 31
0.0
  0
LINE
  5
2D6BD
330
1F
100
AcDbEntity
  8
gaikei
100
AcDbLine
 10
607.3740180247584
 20
-3049.505854346977
 30
0.0
 11
607.3740180247637
 21
-2957.505854346971
 31
0.0
  0
LINE
  5
2D6BE
330
1F
100
AcDbEntity
  8
hasen
100
AcDbLine
 10
607.3740180247585
 20
-3047.505854346979
 30
0.0
 11
627.3740180247584
 21
-3047.505854346979
 31
0.0
  0
LINE
  5
2D6BF
330
1F
100
AcDbEntity
  8
gaikei
100
AcDbLine
 10
647.3740180247585
 20
-3046.505854346983
 30
0.0
 11
652.3740180247584
 21
-3046.505854346983
 31
0.0
  0
LINE
  5
2D6C0
330
1F
100
AcDbEntity
  8
gaikei
100
AcDbLine
 10
425.2285331297346
 20
-2892.505854346968
 30
0.0
 11
425.2285331297346
 21
-2893.505854346967
 31
0.0
  0
LINE
  5
2D6C1
330
1F
100
AcDbEntity
  8
gaikei
100
AcDbLine
 10
445.2285331297345
 20
-2891.505854346968
 30
0.0
 11
425.2285331297346
 21
-2891.505854346968
 31
0.0
  0
LINE
  5
2D6C2
330
1F
100
AcDbEntity
  8
gaikei
100
AcDbLine
 10
445.2285331297345
 20
-2893.505854346967
 30
0.0
 11
445.2285331297345
 21
-2891.505854346968
 31
0.0
  0
LINE
  5
2D6C3
330
1F
100
AcDbEntity
  8
gaikei
100
AcDbLine
 10
425.2285331297346
 20
-2890.50585434697
 30
0.0
 11
405.2285331297346
 21
-2890.50585434697
 31
0.0
  0
LINE
  5
2D6C4
330
1F
100
AcDbEntity
  8
gaikei
100
AcDbLine
 10
425.2285331297346
 20
-2892.50585434697
 30
0.0
 11
425.2285331297346
 21
-2890.50585434697
 31
0.0
  0
LINE
  5
2D6C5
330
1F
100
AcDbEntity
  8
gaikei
100
AcDbLine
 10
405.2285331297346
 20
-2890.50585434697
 30
0.0
 11
405.2285331297347
 21
-2892.50585434697
 31
0.0
  0
LINE
  5
2D6C6
330
1F
100
AcDbEntity
  8
gaikei
100
AcDbLine
 10
445.2285331297345
 20
-3023.505854346977
 30
0.0
 11
425.2285331297346
 21
-3023.505854346977
 31
0.0
  0
LINE
  5
2D6C7
330
1F
100
AcDbEntity
  8
gaikei
100
AcDbLine
 10
445.2285331297344
 20
-2957.505854346972
 30
0.0
 11
445.2285331297345
 21
-3023.505854346977
 31
0.0
  0
LINE
  5
2D6C8
330
1F
100
AcDbEntity
  8
gaikei
100
AcDbLine
 10
425.2285331297346
 20
-3024.505854346975
 30
0.0
 11
405.2285331297346
 21
-3024.505854346975
 31
0.0
  0
LINE
  5
2D6C9
330
1F
100
AcDbEntity
  8
gaikei
100
AcDbLine
 10
425.2285331297346
 20
-3022.505854346975
 30
0.0
 11
425.2285331297346
 21
-3024.505854346975
 31
0.0
  0
LINE
  5
2D6CA
330
1F
100
AcDbEntity
  8
gaikei
100
AcDbLine
 10
405.2285331297346
 20
-3024.505854346975
 30
0.0
 11
405.2285331297382
 21
-2957.505854346972
 31
0.0
  0
LINE
  5
2D6CB
330
1F
100
AcDbEntity
  8
gaikei
100
AcDbLine
 10
445.2285331297345
 20
-3021.505854346977
 30
0.0
 11
450.2285331297346
 21
-3021.505854346978
 31
0.0
  0
LINE
  5
2D6CC
330
1F
100
AcDbEntity
  8
hasen
100
AcDbLine
 10
405.2285331297347
 20
-3022.505854346974
 30
0.0
 11
425.2285331297346
 21
-3022.505854346974
 31
0.0
  0
MTEXT
  5
2DB91
330
1F
100
AcDbEntity
  8
futosen
100
AcDbMText
 10
307.5763735007092
 20
-2818.893580406868
 30
0.0
 40
6.0
 41
80.304996906445
 71
     1
 72
     5
  1
{\W1;ピッタリ継手}
  7
ｺﾞｼｯｸ
 73
     1
 44
0.5142857142857144
  0
MTEXT
  5
2DB92
330
1F
100
AcDbEntity
  8
futosen
100
AcDbMText
 10
552.0057699586545
 20
-2844.211035741338
 30
0.0
 40
3.999999999999999
 41
90.67728877544231
 71
     1
 72
     5
  1
{\W1;ＶＵ１５０用}
  7
ｺﾞｼｯｸ
 73
     1
 44
1.0
  0
MTEXT
  5
2DB93
330
1F
100
AcDbEntity
  8
futosen
100
AcDbMText
 10
351.602694184136
 20
-2856.015267404831
 30
0.0
 40
3.999999999999999
 41
90.67728877544231
 71
     1
 72
     5
  1
{\W1;ＶＵ１００用}
  7
ｺﾞｼｯｸ
 73
     1
 44
1.0
  0
VIEWPORT
  5
695
330
50
100
AcDbEntity
 67
     1
  8
0
100
AcDbViewport
 10
133.3499908447265
 20
101.5999970436096
 30
0.0
 40
371.9748151748405
 41
228.4221935424805
 68
     1
 69
     1
 12
133.3499908447265
 22
101.5999970436096
 13
0.0
 23
0.0
 14
10.0
 24
10.0
 15
10.0
 25
10.0
 16
0.0
 26
0.0
 36
1.0
 17
0.0
 27
0.0
 37
0.0
 42
50.0
 43
0.0
 44
0.0
 45
228.4221935424805
 50
0.0
 51
0.0
 72
  1000
 90
    32800
  1

281
     0
 71
     1
 74
     0
110
0.0
120
0.0
130
0.0
111
1.0
121
0.0
131
0.0
112
0.0
122
1.0
132
0.0
 79
     0
146
0.0
170
     0
  0
VIEWPORT
  5
697
330
50
100
AcDbEntity
 67
     1
  8
sunpo
100
AcDbViewport
 10
133.3499939441681
 20
101.5999939441681
 30
0.0
 40
213.3599903106689
 41
162.5599903106689
 68
     2
 69
     2
 12
210.0
 22
148.5
 13
0.0
 23
0.0
 14
10.0
 24
10.0
 15
10.0
 25
10.0
 16
0.0
 26
0.0
 36
1.0
 17
0.0
 27
0.0
 37
0.0
 42
50.0
 43
0.0
 44
0.0
 45
299.780215525864
 50
0.0
 51
0.0
 72
  1000
 90
    32864
  1

281
     0
 71
     1
 74
     0
110
0.0
120
0.0
130
0.0
111
1.0
121
0.0
131
0.0
112
0.0
122
1.0
132
0.0
 79
     0
146
0.0
170
     0
  0
ENDSEC
  0
SECTION
  2
OBJECTS
  0
DICTIONARY
  5
C
330
0
100
AcDbDictionary
281
     1
  3
ACAD_2007HEADERVARS_RT
350
2DBF1
  3
ACAD_COLOR
350
6B
  3
ACAD_GROUP
350
D
  3
ACAD_LAYOUT
350
1A
  3
ACAD_MATERIAL
350
6A
  3
ACAD_MLEADERSTYLE
350
2DB40
  3
ACAD_MLINESTYLE
350
17
  3
ACAD_PLOTSETTINGS
350
19
  3
ACAD_PLOTSTYLENAME
350
E
  3
ACAD_SCALELIST
350
2DB2E
  3
ACAD_TABLESTYLE
350
1947
  3
ACAD_VISUALSTYLE
350
2DB15
  3
AcadDim
350
2B9D9
  3
ACDB_RECOMPOSE_DATA
350
2DBF0
  3
AcDbVariableDictionary
350
5E
  3
ASE_INDEX_DICTIONARY
350
2DAF8
  0
DICTIONARY
  5
42D6
330
2
100
AcDbDictionary
280
     1
281
     1
  3
ACAD_LAYERFILTERS
360
536B
  3
ACAD_LAYERSTATES
360
65E6
  3
ACLYDICTIONARY
360
536A
  0
DICTIONARY
  5
1980
330
1F
100
AcDbDictionary
280
     1
281
     1
  3
ACAD_SORTENTS
360
1981
  0
DICTIONARY
  5
2B9F9
330
2B9EC
100
AcDbDictionary
280
     1
281
     1
  3
ACAD_DIMASSOC
360
2BA03
  0
DICTIONARY
  5
2BA11
330
2BA04
100
AcDbDictionary
280
     1
281
     1
  3
ACAD_DIMASSOC
360
2BA1B
  0
DICTIONARY
  5
2BA29
330
2BA1C
100
AcDbDictionary
280
     1
281
     1
  3
ACAD_DIMASSOC
360
2BA33
  0
DICTIONARY
  5
2D4A1
330
2D494
100
AcDbDictionary
280
     1
281
     1
  3
ACAD_DIMASSOC
360
2D4AB
  0
DICTIONARY
  5
2D4B9
330
2D4AC
100
AcDbDictionary
280
     1
281
     1
  3
ACAD_DIMASSOC
360
2D4C3
  0
DICTIONARY
  5
2D4D1
330
2D4C4
100
AcDbDictionary
280
     1
281
     1
  3
ACAD_DIMASSOC
360
2D4DB
  0
DICTIONARY
  5
2D4E9
330
2D4DC
100
AcDbDictionary
280
     1
281
     1
  3
ACAD_DIMASSOC
360
2D4F3
  0
DICTIONARY
  5
2D51C
330
2D50F
100
AcDbDictionary
280
     1
281
     1
  3
ACAD_DIMASSOC
360
2D526
  0
DICTIONARY
  5
2D565
330
2D558
100
AcDbDictionary
280
     1
281
     1
  3
ACAD_DIMASSOC
360
2D56F
  0
DICTIONARY
  5
2D57D
330
2D570
100
AcDbDictionary
280
     1
281
     1
  3
ACAD_DIMASSOC
360
2D587
  0
DICTIONARY
  5
2D595
330
2D588
100
AcDbDictionary
280
     1
281
     1
  3
ACAD_DIMASSOC
360
2D59F
  0
DICTIONARY
  5
2D5D1
330
2D5C4
100
AcDbDictionary
280
     1
281
     1
  3
ACAD_DIMASSOC
360
2D5DB
  0
DICTIONARY
  5
2D5E9
330
2D5DC
100
AcDbDictionary
280
     1
281
     1
  3
ACAD_DIMASSOC
360
2D5F3
  0
DICTIONARY
  5
2D601
330
2D5F4
100
AcDbDictionary
280
     1
281
     1
  3
ACAD_DIMASSOC
360
2D60B
  0
DICTIONARY
  5
2D619
330
2D60C
100
AcDbDictionary
280
     1
281
     1
  3
ACAD_DIMASSOC
360
2D623
  0
DICTIONARY
  5
2D64C
330
2D63F
100
AcDbDictionary
280
     1
281
     1
  3
ACAD_DIMASSOC
360
2D656
  0
DICTIONARY
  5
2D689
330
2D67C
100
AcDbDictionary
280
     1
281
     1
  3
ACAD_DIMASSOC
360
2D693
  0
DICTIONARY
  5
2DBF1
102
{ACAD_REACTORS
330
C
102
}
330
C
100
AcDbDictionary
281
     1
  3
DIMFXL
350
2DBF2
  3
DIMJOGANG
350
2DBF3
  0
DICTIONARY
  5
6B
102
{ACAD_REACTORS
330
C
102
}
330
C
100
AcDbDictionary
281
     1
  0
DICTIONARY
  5
D
102
{ACAD_REACTORS
330
C
102
}
330
C
100
AcDbDictionary
281
     1
  0
DICTIONARY
  5
1A
102
{ACAD_REACTORS
330
C
102
}
330
C
100
AcDbDictionary
281
     1
  3
Model
350
22
  3
レイアウト1
350
51
  3
レイアウト2
350
56
  0
DICTIONARY
  5
6A
102
{ACAD_REACTORS
330
C
102
}
330
C
100
AcDbDictionary
281
     1
  3
ByBlock
350
2DB05
  3
ByLayer
350
2DAFD
  3
Global
350
2DB0D
  0
DICTIONARY
  5
2DB40
102
{ACAD_REACTORS
330
C
102
}
330
C
100
AcDbDictionary
281
     1
  3
Standard
350
2DB41
  0
DICTIONARY
  5
17
102
{ACAD_REACTORS
330
C
102
}
330
C
100
AcDbDictionary
281
     1
  3
Standard
350
18
  0
DICTIONARY
  5
19
102
{ACAD_REACTORS
330
C
102
}
330
C
100
AcDbDictionary
281
     1
  0
ACDBDICTIONARYWDFLT
  5
E
102
{ACAD_REACTORS
330
C
102
}
330
C
100
AcDbDictionary
281
     1
  3
Normal
350
F
100
AcDbDictionaryWithDefault
340
F
  0
DICTIONARY
  5
2DB2E
102
{ACAD_REACTORS
330
C
102
}
330
C
100
AcDbDictionary
281
     1
  3
A0
350
2DB2F
  3
A1
350
2DB30
  3
A2
350
2DB31
  3
A3
350
2DB32
  3
A4
350
2DB33
  3
A5
350
2DB34
  3
A6
350
2DB35
  3
A7
350
2DB36
  3
A8
350
2DB37
  3
A9
350
2DB38
  3
B0
350
2DB39
  3
B1
350
2DB3A
  3
B2
350
2DB3B
  3
B3
350
2DB3C
  3
B4
350
2DB3D
  3
B5
350
2DB3E
  3
B6
350
2DB3F
  0
DICTIONARY
  5
1947
102
{ACAD_REACTORS
330
C
102
}
330
C
100
AcDbDictionary
281
     1
  3
Standard
350
1948
  0
DICTIONARY
  5
2DB15
102
{ACAD_REACTORS
330
C
102
}
330
C
100
AcDbDictionary
281
     1
  3
2dWireframe
350
2DB1B
  3
Basic
350
2DB1A
  3
Brighten
350
2DB21
  3
ColorChange
350
2DB25
  3
Conceptual
350
2DB1E
  3
Dim
350
2DB20
  3
EdgeColorOff
350
2DB2D
  3
Facepattern
350
2DB24
  3
Flat
350
2DB16
  3
FlatWithEdges
350
2DB17
  3
Gouraud
350
2DB18
  3
GouraudWithEdges
350
2DB19
  3
Hidden
350
2DB1D
  3
JitterOff
350
2DB2B
  3
Linepattern
350
2DB23
  3
OverhangOff
350
2DB2C
  3
Realistic
350
2DB1F
  3
Shaded
350
2DB2A
  3
Shaded with edges
350
2DB29
  3
Shades of Gray
350
2DB26
  3
Sketchy
350
2DB27
  3
Thicken
350
2DB22
  3
Wireframe
350
2DB1C
  3
X-Ray
350
2DB28
  0
XRECORD
  5
2B9D9
102
{ACAD_REACTORS
330
C
102
}
330
C
100
AcDbXrecord
280
     1
 90
   990106
  3

 60
     0
 61
     0
 62
     4
 63
     4
 64
     1
 65
     0
 66
     0
 67
     3
 68
     1
 69
     0
 70
     0
 71
     0
 72
     0
 40
0.0
170
     2
  0
XRECORD
  5
2DBF0
102
{ACAD_REACTORS
330
C
102
}
330
C
100
AcDbXrecord
280
     1
 90
        1
330
1948
  0
DICTIONARY
  5
5E
102
{ACAD_REACTORS
330
C
102
}
330
C
100
AcDbDictionary
281
     1
  3
CANNOSCALE
350
2DB53
  3
CMLEADERSTYLE
350
2DB52
  3
CTABLESTYLE
350
1955
  3
DIMASSOC
350
5F
  3
HIDETEXT
350
63
  0
DICTIONARY
  5
2DAF8
102
{ACAD_REACTORS
330
C
102
}
330
C
100
AcDbDictionary
281
     1
  3
ASEBlockHierarchyIndexRecord
350
2DAF9
1001
DCO15
1040
1685785147.421
  0
DICTIONARY
  5
536B
102
{ACAD_REACTORS
330
42D6
102
}
330
42D6
100
AcDbDictionary
281
     1
  0
DICTIONARY
  5
65E6
102
{ACAD_REACTORS
330
42D6
102
}
330
42D6
100
AcDbDictionary
281
     1
  0
DICTIONARY
  5
536A
102
{ACAD_REACTORS
330
42D6
102
}
330
42D6
100
AcDbDictionary
281
     1
1001
ACAD
1000
<All
  0
SORTENTSTABLE
  5
1981
102
{ACAD_REACTORS
330
1980
102
}
330
1980
100
AcDbSortentsTable
330
1F
331
2D6C3
  5
2D6C3
331
2D6B7
  5
2D6B7
331
2D6CC
  5
2D6CC
331
2B898
  5
2B8A2
331
2B87B
  5
2B87F
331
2B866
  5
2B869
331
2B8A1
  5
2B8AB
331
2B884
  5
2B888
331
2B8BE
  5
2B8C8
331
2B852
  5
2B854
331
2B86F
  5
2B873
331
2B85B
  5
2B85E
331
2B88D
  5
2B893
331
2B8AA
  5
2B8B4
331
2B896
  5
2B8A0
331
2B8B3
  5
2B8BD
331
2D494
  5
2D4AC
331
2D570
  5
2D588
331
2D5C4
  5
2D5DC
331
2B97C
  5
2B9D6
331
2D6C2
  5
2D6C2
331
2BA1C
  5
2D494
331
2B985
  5
2B86D
331
2D6CB
  5
2D6CB
331
2D67C
  5
2D6A6
331
2D6B6
  5
2D6B6
331
2D6BF
  5
2D6BF
331
2B865
  5
2B868
331
2B87A
  5
2B87E
331
2B86E
  5
2B872
331
2B883
  5
2B887
331
2B851
  5
2B853
331
2B8A0
  5
2B8AA
331
2B8BD
  5
2B8C7
331
2B8A9
  5
2B8B3
331
2B85A
  5
2B85D
331
2B877
  5
2B87B
331
2B88C
  5
2B892
331
2B895
  5
2B89F
331
2B8B2
  5
2B8BC
331
2B9EC
  5
2BA04
331
2B97B
  5
2B896
331
2D6C1
  5
2D6C1
331
2D6B5
  5
2B898
331
2D6CA
  5
2D6CA
331
2D6BE
  5
2D6BE
331
2B864
  5
2B867
331
2B879
  5
2B87D
331
2B89F
  5
2B8A9
331
2B86D
  5
2B871
331
2B850
  5
2B852
331
2B882
  5
2B886
331
2B8BC
  5
2B8C6
331
2B859
  5
2B85C
331
2B876
  5
2B87A
331
2B88B
  5
2B891
331
2B8A8
  5
2B8B2
331
2B894
  5
2B89C
331
2B8B1
  5
2B8BB
331
2D4C4
  5
2D4DC
331
2D50F
  5
2D54B
331
27DC4
  5
2736D
331
2B9EB
  5
2B9EC
331
2D5F4
  5
2D60C
331
2B9D7
  5
2B9E4
331
2D6C0
  5
2D6C0
331
2D6AB
  5
2D6B5
331
2D6C9
  5
2D6C9
331
2D6BD
  5
2D6BD
331
2B863
  5
2B866
331
2B878
  5
2B87C
331
2B86C
  5
2B870
331
2B881
  5
2B885
331
2B84F
  5
2B851
331
2B89E
  5
2B8A8
331
2B8BB
  5
2B8C5
331
2B8A7
  5
2B8B1
331
2B858
  5
2B85B
331
2B875
  5
2B879
331
2B88A
  5
2B890
331
2B893
  5
2B89B
331
2B8B0
  5
2B8BA
331
2B9D6
  5
2B9D7
331
2D6AA
  5
2D6AB
331
2D63F
  5
2D67C
331
2D6C8
  5
2D6C8
331
2D6BC
  5
2D6BC
331
2B862
  5
2B865
331
2B8BA
  5
2B8C4
331
2B86B
  5
2B86F
331
2B84E
  5
2B850
331
2B880
  5
2B884
331
2B89D
  5
2B8A7
331
2B874
  5
2B878
331
2B857
  5
2B85A
331
2B889
  5
2B88F
331
2B8A6
  5
2B8B0
331
2B8AF
  5
2B8B9
331
2B892
  5
2B89A
331
2D558
  5
2D570
331
2B9AC
  5
2B88C
331
2D6A9
  5
2D6AA
331
2D6C7
  5
2D6C7
331
2BA04
  5
2BA1C
331
2B9E7
  5
2B9E8
331
2D6BB
  5
2D6BB
331
2D6A7
  5
2D6A8
331
2B86A
  5
2B86E
331
2B89C
  5
2B8A6
331
2B84D
  5
2B84F
331
2B8B9
  5
2B8C3
331
2B8A5
  5
2B8AF
331
2B873
  5
2B877
331
2B856
  5
2B859
331
2B821
  5
2B821
331
2B888
  5
2B88E
331
2B85F
  5
2B863
331
2B891
  5
2B899
331
2B8AE
  5
2B8B8
331
2D4AC
  5
2D4C4
331
2D588
  5
2D5C4
331
2B9E8
  5
2B9EB
331
2B9D4
  5
2B84C
331
2D6A8
  5
2D6A9
331
2D6C6
  5
2D6C6
331
2B9E6
  5
2B9E7
331
2D6BA
  5
2D6BA
331
2D6A6
  5
2D6A7
331
2B860
  5
2B864
331
2B833
  5
2B833
331
2B8B8
  5
2B8C2
331
2B869
  5
2B86C
331
2B84C
  5
2B84E
331
2B87E
  5
2B882
331
2B89B
  5
2B8A5
331
2B872
  5
2B876
331
2B887
  5
2B88B
331
2B855
  5
2B858
331
2B8A4
  5
2B8AE
331
2B8AD
  5
2B8B7
331
2B85E
  5
2B862
331
2B890
  5
2B897
331
2B8B6
  5
2B8C1
331
2D5DC
  5
2D5F4
331
2D6C5
  5
2D6C5
331
2B9E5
  5
2B9E6
331
2D6B9
  5
2D6B9
331
2B89A
  5
2B8A4
331
2B868
  5
2B86B
331
2B87D
  5
2B881
331
2B8A3
  5
2B8AD
331
2B871
  5
2B875
331
2B81F
  5
2B81F
331
2B886
  5
2B88A
331
2B88F
  5
2B895
331
2B8AC
  5
2B8B6
331
2B85D
  5
2B860
331
2B8B5
  5
2B8BF
331
2D4DC
  5
2D50F
331
2D60C
  5
2D63F
331
2D6C4
  5
2D6C4
331
2B9E4
  5
2B9E5
331
2D6B8
  5
2D6B8
331
2B867
  5
2B86A
331
2B87C
  5
2B880
331
2B899
  5
2B8A3
331
2B885
  5
2B889
331
2B8A2
  5
2B8AC
331
2B8BF
  5
2B8C9
331
2B853
  5
2B855
331
2B870
  5
2B874
331
2B8AB
  5
2B8B5
331
2B88E
  5
2B894
331
2B85C
  5
2B85F
331
2B897
  5
2B8A1
331
2B8B4
  5
2B8BE
331
2D54B
  5
2D558
  0
DIMASSOC
  5
2BA03
102
{ACAD_REACTORS
330
2B9F9
102
}
330
2B9F9
100
AcDbDimAssoc
330
2B9EC
 90
        3
 70
     0
 71
     0
  1
AcDbOsnapPointRef
 72
     1
331
2B89C
 73
     2
 91
        0
 40
1.0
 10
0.0
 20
0.0
 30
2.000000000000000E+50
 75
     0
  1
AcDbOsnapPointRef
 72
     1
331
2B88A
 73
     2
 91
        0
 40
1.0
 10
0.0
 20
0.0
 30
2.000000000000000E+50
 75
     0
  0
DIMASSOC
  5
2BA1B
102
{ACAD_REACTORS
330
2BA11
102
}
330
2BA11
100
AcDbDimAssoc
330
2BA04
 90
        3
 70
     0
 71
     0
  1
AcDbOsnapPointRef
 72
     6
331
2B895
 73
     2
 91
        0
 40
0.9999999999999802
 10
0.0
 20
0.0
 30
0.0
332
2B891
 74
     2
 92
        0
 75
     0
  1
AcDbOsnapPointRef
 72
     1
331
2B8A7
 73
     2
 91
        0
 40
1.0
 10
0.0
 20
0.0
 30
2.000000000000000E+50
 75
     0
  0
DIMASSOC
  5
2BA33
102
{ACAD_REACTORS
330
2BA29
102
}
330
2BA29
100
AcDbDimAssoc
330
2BA1C
 90
        3
 70
     0
 71
     0
  1
AcDbOsnapPointRef
 72
    13
331
2B8B2
 73
     2
 91
        0
 40
0.0
 10
0.0
 20
0.0
 30
2.000000000000000E+50
 75
     0
  1
AcDbOsnapPointRef
 72
    13
331
2B8BC
 73
     2
 91
        0
 40
0.0
 10
0.0
 20
0.0
 30
2.000000000000000E+50
 75
     0
  0
DIMASSOC
  5
2D4AB
102
{ACAD_REACTORS
330
2D4A1
102
}
330
2D4A1
100
AcDbDimAssoc
330
2D494
 90
        3
 70
     0
 71
     0
  1
AcDbOsnapPointRef
 72
     1
331
2B875
 73
     2
 91
        0
 40
1.0
 10
0.0
 20
0.0
 30
2.000000000000000E+50
 75
     0
  1
AcDbOsnapPointRef
 72
     1
331
2B84E
 73
     2
 91
        0
 40
1.0
 10
0.0
 20
0.0
 30
2.000000000000000E+50
 75
     0
  0
DIMASSOC
  5
2D4C3
102
{ACAD_REACTORS
330
2D4B9
102
}
330
2D4B9
100
AcDbDimAssoc
330
2D4AC
 90
        3
 70
     0
 71
     0
  1
AcDbOsnapPointRef
 72
     1
331
2B855
 73
     2
 91
        0
 40
1.0
 10
0.0
 20
0.0
 30
2.000000000000000E+50
 75
     0
  1
AcDbOsnapPointRef
 72
     1
331
2B86B
 73
     2
 91
        0
 40
1.0
 10
0.0
 20
0.0
 30
2.000000000000000E+50
 75
     0
  0
DIMASSOC
  5
2D4DB
102
{ACAD_REACTORS
330
2D4D1
102
}
330
2D4D1
100
AcDbDimAssoc
330
2D4C4
 90
        3
 70
     0
 71
     0
  1
AcDbOsnapPointRef
 72
    13
331
2B87A
 73
     2
 91
        0
 40
0.0
 10
0.0
 20
0.0
 30
2.000000000000000E+50
 75
     0
  1
AcDbOsnapPointRef
 72
    13
331
2B883
 73
     2
 91
        0
 40
0.0
 10
0.0
 20
0.0
 30
2.000000000000000E+50
 75
     0
  0
DIMASSOC
  5
2D4F3
102
{ACAD_REACTORS
330
2D4E9
102
}
330
2D4E9
100
AcDbDimAssoc
330
2D4DC
 90
        3
 70
     0
 71
     0
  1
AcDbOsnapPointRef
 72
     1
331
2B8B1
 73
     2
 91
        0
 40
1.0
 10
0.0
 20
0.0
 30
2.000000000000000E+50
 75
     0
  1
AcDbOsnapPointRef
 72
     8
331
2B8BB
 73
     2
 91
        0
 40
0.9999999999999971
 10
0.0
 20
0.0
 30
0.0
 75
     1
  1
AcDbOsnapPointRef
 72
     1
331
2B8B1
 73
     2
 91
        0
 40
1.0
 10
0.0
 20
0.0
 30
2.000000000000000E+50
 75
     0
  0
DIMASSOC
  5
2D526
102
{ACAD_REACTORS
330
2D51C
102
}
330
2D51C
100
AcDbDimAssoc
330
2D50F
 90
        3
 70
     0
 71
     0
  1
AcDbOsnapPointRef
 72
     1
331
2B879
 73
     2
 91
        0
 40
1.0
 10
0.0
 20
0.0
 30
2.000000000000000E+50
 75
     0
  1
AcDbOsnapPointRef
 72
     8
331
2B882
 73
     2
 91
        0
 40
0.9999999999999971
 10
0.0
 20
0.0
 30
0.0
 75
     1
  1
AcDbOsnapPointRef
 72
     1
331
2B879
 73
     2
 91
        0
 40
1.0
 10
0.0
 20
0.0
 30
2.000000000000000E+50
 75
     0
  0
DIMASSOC
  5
2D56F
102
{ACAD_REACTORS
330
2D565
102
}
330
2D565
100
AcDbDimAssoc
330
2D558
 90
        2
 70
     0
 71
     0
  1
AcDbOsnapPointRef
 72
     1
331
2B89E
 73
     2
 91
        0
 40
1.0
 10
0.0
 20
0.0
 30
2.000000000000000E+50
 75
     0
  0
DIMASSOC
  5
2D587
102
{ACAD_REACTORS
330
2D57D
102
}
330
2D57D
100
AcDbDimAssoc
330
2D570
 90
        2
 70
     0
 71
     0
  1
AcDbOsnapPointRef
 72
    13
331
2B8AA
 73
     2
 91
        0
 40
0.0
 10
0.0
 20
0.0
 30
2.000000000000000E+50
 75
     0
  0
DIMASSOC
  5
2D59F
102
{ACAD_REACTORS
330
2D595
102
}
330
2D595
100
AcDbDimAssoc
330
2D588
 90
        1
 70
     0
 71
     0
  1
AcDbOsnapPointRef
 72
    13
331
2B8BD
 73
     2
 91
        0
 40
0.0
 10
0.0
 20
0.0
 30
2.000000000000000E+50
 75
     0
  0
DIMASSOC
  5
2D5DB
102
{ACAD_REACTORS
330
2D5D1
102
}
330
2D5D1
100
AcDbDimAssoc
330
2D5C4
 90
        1
 70
     0
 71
     0
  1
AcDbOsnapPointRef
 72
     1
331
2B864
 73
     2
 91
        0
 40
1.0
 10
0.0
 20
0.0
 30
2.000000000000000E+50
 75
     0
  0
DIMASSOC
  5
2D5F3
102
{ACAD_REACTORS
330
2D5E9
102
}
330
2D5E9
100
AcDbDimAssoc
330
2D5DC
 90
        2
 70
     0
 71
     0
  1
AcDbOsnapPointRef
 72
    13
331
2B884
 73
     2
 91
        0
 40
0.0
 10
0.0
 20
0.0
 30
2.000000000000000E+50
 75
     0
  0
DIMASSOC
  5
2D60B
102
{ACAD_REACTORS
330
2D601
102
}
330
2D601
100
AcDbDimAssoc
330
2D5F4
 90
        1
 70
     0
 71
     0
  1
AcDbOsnapPointRef
 72
    13
331
2B884
 73
     2
 91
        0
 40
0.0
 10
0.0
 20
0.0
 30
2.000000000000000E+50
 75
     0
  0
DIMASSOC
  5
2D623
102
{ACAD_REACTORS
330
2D619
102
}
330
2D619
100
AcDbDimAssoc
330
2D60C
 90
        3
 70
     0
 71
     0
  1
AcDbOsnapPointRef
 72
    13
331
2B86E
 73
     2
 91
        0
 40
0.0
 10
0.0
 20
0.0
 30
2.000000000000000E+50
 75
     0
  1
AcDbOsnapPointRef
 72
     8
331
2B880
 73
     2
 91
        0
 40
0.828571428571322
 10
0.0
 20
0.0
 30
0.0
 75
     1
  1
AcDbOsnapPointRef
 72
    13
331
2B86E
 73
     2
 91
        0
 40
0.0
 10
0.0
 20
0.0
 30
2.000000000000000E+50
 75
     0
  0
DIMASSOC
  5
2D656
102
{ACAD_REACTORS
330
2D64C
102
}
330
2D64C
100
AcDbDimAssoc
330
2D63F
 90
        3
 70
     0
 71
     0
  1
AcDbOsnapPointRef
 72
     1
331
2B8BF
 73
     2
 91
        0
 40
1.0
 10
0.0
 20
0.0
 30
2.000000000000000E+50
 75
     0
  1
AcDbOsnapPointRef
 72
     1
331
2B8B5
 73
     2
 91
        0
 40
1.0
 10
0.0
 20
0.0
 30
2.000000000000000E+50
 75
     0
  0
DIMASSOC
  5
2D693
102
{ACAD_REACTORS
330
2D689
102
}
330
2D689
100
AcDbDimAssoc
330
2D67C
 90
        1
 70
     0
 71
     0
  1
AcDbOsnapPointRef
 72
     1
331
2B886
 73
     2
 91
        0
 40
1.0
 10
0.0
 20
0.0
 30
2.000000000000000E+50
 75
     0
  0
XRECORD
  5
2DBF2
102
{ACAD_REACTORS
330
2DBF1
102
}
330
2DBF1
100
AcDbXrecord
280
     1
 40
0.0
  0
XRECORD
  5
2DBF3
102
{ACAD_REACTORS
330
2DBF1
102
}
330
2DBF1
100
AcDbXrecord
280
     1
 40
1.570796326794896
  0
LAYOUT
  5
22
102
{ACAD_XDICTIONARY
360
2DBEC
102
}
102
{ACAD_REACTORS
330
1A
102
}
330
1A
100
AcDbPlotSettings
  1

  2
RICOH imagio Neo C380 RPCS
  4
A3
  6

 40
5.873749732971191
 41
5.873747825622558
 42
5.873748779296875
 43
5.873748779296875
 44
296.9259948730469
 45
419.9466552734374
 46
-5.910751819610595
 47
-5.900420665740966
 48
83.63685738596542
 49
-5116.414282712764
140
2603.636857385966
141
-3334.414282712764
142
1.0
143
6.0
 70
 11940
 72
     1
 73
     1
 74
     4
  7
monochrome.ctb
 75
     0
147
0.1238309881106695
 76
     0
 77
     2
 78
   300
148
-83.63685738596542
149
5116.414282712764
100
AcDbLayout
  1
Model
 70
     1
 71
     0
 10
0.0
 20
0.0
 11
12.0
 21
9.0
 12
0.0
 22
0.0
 32
0.0
 14
0.0
 24
0.0
 34
0.0
 15
0.0
 25
0.0
 35
0.0
146
0.0
 13
0.0
 23
0.0
 33
0.0
 16
1.0
 26
0.0
 36
0.0
 17
0.0
 27
1.0
 37
0.0
 76
     0
330
1F
331
2DAFB
1001
ACAD_PSEXT
1000
RICOH imagio Neo C380 RPCS
1000
RICOH imagio Neo C380 RPCS
1000
IP_192.168.1.105
1000
RPCS Driver (Windows 2000/XP/Server 2003)
1070
     0
  0
LAYOUT
  5
51
102
{ACAD_REACTORS
330
1A
102
}
330
1A
100
AcDbPlotSettings
  1

  2
none_device
  4
Letter_(8.50_x_11.00_Inches)
  6

 40
6.349999904632568
 41
6.349999904632568
 42
6.350006103515625
 43
6.350006103515625
 44
215.8999938964844
 45
279.3999938964844
 46
0.0
 47
0.0
 48
0.0
 49
0.0
140
0.0
141
0.0
142
1.0
143
1.0
 70
   688
 72
     1
 73
     1
 74
     5
  7
monochrome.ctb
 75
    16
147
1.0
 76
     0
 77
     2
 78
   300
148
0.0
149
0.0
100
AcDbLayout
  1
レイアウト1
 70
     1
 71
     1
 10
-6.350006103515625
 20
-6.349999904632568
 11
273.0499877929688
 21
209.5499939918518
 12
0.0
 22
0.0
 32
0.0
 14
26.66999878883363
 24
20.31999878883363
 34
0.0
 15
240.0299890995026
 25
182.8799890995025
 35
0.0
146
0.0
 13
0.0
 23
0.0
 33
0.0
 16
1.0
 26
0.0
 36
0.0
 17
0.0
 27
1.0
 37
0.0
 76
     0
330
50
331
695
  0
LAYOUT
  5
56
102
{ACAD_REACTORS
330
1A
102
}
330
1A
100
AcDbPlotSettings
  1

  2
None
  4

  6

 40
0.0
 41
0.0
 42
0.0
 43
0.0
 44
0.0
 45
0.0
 46
0.0
 47
0.0
 48
0.0
 49
0.0
140
0.0
141
0.0
142
1.0
143
1.0
 70
   688
 72
     0
 73
     0
 74
     5
  7
monochrome.ctb
 75
    16
147
1.0
 76
     0
 77
     2
 78
   300
148
0.0
149
0.0
100
AcDbLayout
  1
レイアウト2
 70
     1
 71
     2
 10
0.0
 20
0.0
 11
12.0
 21
9.0
 12
0.0
 22
0.0
 32
0.0
 14
0.0
 24
0.0
 34
0.0
 15
0.0
 25
0.0
 35
0.0
146
0.0
 13
0.0
 23
0.0
 33
0.0
 16
1.0
 26
0.0
 36
0.0
 17
0.0
 27
1.0
 37
0.0
 76
     0
330
55
  0
MATERIAL
  5
2DB05
102
{ACAD_XDICTIONARY
360
2DB06
102
}
102
{ACAD_REACTORS
330
6A
102
}
330
6A
100
AcDbMaterial
  1
ByBlock
 72
     0
 43
0.0008202099737533
 43
0.0
 43
0.0
 43
0.0
 43
0.0
 43
0.0008202099737533
 43
0.0
 43
0.0
 43
0.0
 43
0.0
 43
1.0
 43
0.0
 43
0.0
 43
0.0
 43
0.0
 43
1.0
 77
     0
 47
0.0008202099737533
 47
0.0
 47
0.0
 47
0.0
 47
0.0
 47
0.0008202099737533
 47
0.0
 47
0.0
 47
0.0
 47
0.0
 47
1.0
 47
0.0
 47
0.0
 47
0.0
 47
0.0
 47
1.0
171
     0
 49
0.0008202099737533
 49
0.0
 49
0.0
 49
0.0
 49
0.0
 49
0.0008202099737533
 49
0.0
 49
0.0
 49
0.0
 49
0.0
 49
1.0
 49
0.0
 49
0.0
 49
0.0
 49
0.0
 49
1.0
175
     0
142
0.0008202099737533
142
0.0
142
0.0
142
0.0
142
0.0
142
0.0008202099737533
142
0.0
142
0.0
142
0.0
142
0.0
142
1.0
142
0.0
142
0.0
142
0.0
142
0.0
142
1.0
179
     0
144
0.0008202099737533
144
0.0
144
0.0
144
0.0
144
0.0
144
0.0008202099737533
144
0.0
144
0.0
144
0.0
144
0.0
144
1.0
144
0.0
144
0.0
144
0.0
144
0.0
144
1.0
147
0.0008202099737533
147
0.0
147
0.0
147
0.0
147
0.0
147
0.0008202099737533
147
0.0
147
0.0
147
0.0
147
0.0
147
1.0
147
0.0
147
0.0
147
0.0
147
0.0
147
1.0
  0
MATERIAL
  5
2DAFD
102
{ACAD_XDICTIONARY
360
2DAFE
102
}
102
{ACAD_REACTORS
330
6A
102
}
330
6A
100
AcDbMaterial
  1
ByLayer
 72
     0
 43
0.0008202099737533
 43
0.0
 43
0.0
 43
0.0
 43
0.0
 43
0.0008202099737533
 43
0.0
 43
0.0
 43
0.0
 43
0.0
 43
1.0
 43
0.0
 43
0.0
 43
0.0
 43
0.0
 43
1.0
 77
     0
 47
0.0008202099737533
 47
0.0
 47
0.0
 47
0.0
 47
0.0
 47
0.0008202099737533
 47
0.0
 47
0.0
 47
0.0
 47
0.0
 47
1.0
 47
0.0
 47
0.0
 47
0.0
 47
0.0
 47
1.0
171
     0
 49
0.0008202099737533
 49
0.0
 49
0.0
 49
0.0
 49
0.0
 49
0.0008202099737533
 49
0.0
 49
0.0
 49
0.0
 49
0.0
 49
1.0
 49
0.0
 49
0.0
 49
0.0
 49
0.0
 49
1.0
175
     0
142
0.0008202099737533
142
0.0
142
0.0
142
0.0
142
0.0
142
0.0008202099737533
142
0.0
142
0.0
142
0.0
142
0.0
142
1.0
142
0.0
142
0.0
142
0.0
142
0.0
142
1.0
179
     0
144
0.0008202099737533
144
0.0
144
0.0
144
0.0
144
0.0
144
0.0008202099737533
144
0.0
144
0.0
144
0.0
144
0.0
144
1.0
144
0.0
144
0.0
144
0.0
144
0.0
144
1.0
147
0.0008202099737533
147
0.0
147
0.0
147
0.0
147
0.0
147
0.0008202099737533
147
0.0
147
0.0
147
0.0
147
0.0
147
1.0
147
0.0
147
0.0
147
0.0
147
0.0
147
1.0
  0
MATERIAL
  5
2DB0D
102
{ACAD_XDICTIONARY
360
2DB0E
102
}
102
{ACAD_REACTORS
330
6A
102
}
330
6A
100
AcDbMaterial
  1
Global
 72
     0
 43
0.0008202099737533
 43
0.0
 43
0.0
 43
0.0
 43
0.0
 43
0.0008202099737533
 43
0.0
 43
0.0
 43
0.0
 43
0.0
 43
1.0
 43
0.0
 43
0.0
 43
0.0
 43
0.0
 43
1.0
 77
     0
 47
0.0008202099737533
 47
0.0
 47
0.0
 47
0.0
 47
0.0
 47
0.0008202099737533
 47
0.0
 47
0.0
 47
0.0
 47
0.0
 47
1.0
 47
0.0
 47
0.0
 47
0.0
 47
0.0
 47
1.0
171
     0
 49
0.0008202099737533
 49
0.0
 49
0.0
 49
0.0
 49
0.0
 49
0.0008202099737533
 49
0.0
 49
0.0
 49
0.0
 49
0.0
 49
1.0
 49
0.0
 49
0.0
 49
0.0
 49
0.0
 49
1.0
175
     0
142
0.0008202099737533
142
0.0
142
0.0
142
0.0
142
0.0
142
0.0008202099737533
142
0.0
142
0.0
142
0.0
142
0.0
142
1.0
142
0.0
142
0.0
142
0.0
142
0.0
142
1.0
179
     0
144
0.0008202099737533
144
0.0
144
0.0
144
0.0
144
0.0
144
0.0008202099737533
144
0.0
144
0.0
144
0.0
144
0.0
144
1.0
144
0.0
144
0.0
144
0.0
144
0.0
144
1.0
147
0.0008202099737533
147
0.0
147
0.0
147
0.0
147
0.0
147
0.0008202099737533
147
0.0
147
0.0
147
0.0
147
0.0
147
1.0
147
0.0
147
0.0
147
0.0
147
0.0
147
1.0
  0
MLEADERSTYLE
  5
2DB41
102
{ACAD_REACTORS
330
2DB40
102
}
330
2DB40
100
AcDbMLeaderStyle
170
     2
171
     1
172
     0
 90
        2
 40
0.0
 41
0.0
173
     1
 91
-1056964608
340
14
 92
       -2
290
     1
 42
2.0
291
     1
 43
0.36
  3
Standard
 44
4.0
300

342
11
174
     1
178
     6
175
     1
176
     0
 93
-1056964608
 45
4.0
292
     0
297
     0
 46
4.0
 94
-1056964608
 47
1.0
 49
1.0
140
1.0
293
     1
141
0.0
294
     1
177
     0
142
1.0
295
     0
296
     0
143
0.125
1001
ACAD_MLEADERVER
1070
     2
  0
MLINESTYLE
  5
18
102
{ACAD_REACTORS
330
17
102
}
330
17
100
AcDbMlineStyle
  2
STANDARD
 70
     0
  3

 62
   256
 51
90.0
 52
90.0
 71
     2
 49
0.5
 62
   256
  6
BYLAYER
 49
-0.5
 62
   256
  6
BYLAYER
  0
ACDBPLACEHOLDER
  5
F
102
{ACAD_REACTORS
330
E
102
}
330
E
  0
SCALE
  5
2DB2F
102
{ACAD_REACTORS
330
2DB2E
102
}
330
2DB2E
100
AcDbScale
 70
     0
300
1:1
140
1.0
141
1.0
290
     1
  0
SCALE
  5
2DB30
102
{ACAD_REACTORS
330
2DB2E
102
}
330
2DB2E
100
AcDbScale
 70
     0
300
1:2
140
1.0
141
2.0
290
     0
  0
SCALE
  5
2DB31
102
{ACAD_REACTORS
330
2DB2E
102
}
330
2DB2E
100
AcDbScale
 70
     0
300
1:4
140
1.0
141
4.0
290
     0
  0
SCALE
  5
2DB32
102
{ACAD_REACTORS
330
2DB2E
102
}
330
2DB2E
100
AcDbScale
 70
     0
300
1:5
140
1.0
141
5.0
290
     0
  0
SCALE
  5
2DB33
102
{ACAD_REACTORS
330
2DB2E
102
}
330
2DB2E
100
AcDbScale
 70
     0
300
1:8
140
1.0
141
8.0
290
     0
  0
SCALE
  5
2DB34
102
{ACAD_REACTORS
330
2DB2E
102
}
330
2DB2E
100
AcDbScale
 70
     0
300
1:10
140
1.0
141
10.0
290
     0
  0
SCALE
  5
2DB35
102
{ACAD_REACTORS
330
2DB2E
102
}
330
2DB2E
100
AcDbScale
 70
     0
300
1:16
140
1.0
141
16.0
290
     0
  0
SCALE
  5
2DB36
102
{ACAD_REACTORS
330
2DB2E
102
}
330
2DB2E
100
AcDbScale
 70
     0
300
1:20
140
1.0
141
20.0
290
     0
  0
SCALE
  5
2DB37
102
{ACAD_REACTORS
330
2DB2E
102
}
330
2DB2E
100
AcDbScale
 70
     0
300
1:30
140
1.0
141
30.0
290
     0
  0
SCALE
  5
2DB38
102
{ACAD_REACTORS
330
2DB2E
102
}
330
2DB2E
100
AcDbScale
 70
     0
300
1:40
140
1.0
141
40.0
290
     0
  0
SCALE
  5
2DB39
102
{ACAD_REACTORS
330
2DB2E
102
}
330
2DB2E
100
AcDbScale
 70
     0
300
1:50
140
1.0
141
50.0
290
     0
  0
SCALE
  5
2DB3A
102
{ACAD_REACTORS
330
2DB2E
102
}
330
2DB2E
100
AcDbScale
 70
     0
300
1:100
140
1.0
141
100.0
290
     0
  0
SCALE
  5
2DB3B
102
{ACAD_REACTORS
330
2DB2E
102
}
330
2DB2E
100
AcDbScale
 70
     0
300
2:1
140
2.0
141
1.0
290
     0
  0
SCALE
  5
2DB3C
102
{ACAD_REACTORS
330
2DB2E
102
}
330
2DB2E
100
AcDbScale
 70
     0
300
4:1
140
4.0
141
1.0
290
     0
  0
SCALE
  5
2DB3D
102
{ACAD_REACTORS
330
2DB2E
102
}
330
2DB2E
100
AcDbScale
 70
     0
300
8:1
140
8.0
141
1.0
290
     0
  0
SCALE
  5
2DB3E
102
{ACAD_REACTORS
330
2DB2E
102
}
330
2DB2E
100
AcDbScale
 70
     0
300
10:1
140
10.0
141
1.0
290
     0
  0
SCALE
  5
2DB3F
102
{ACAD_REACTORS
330
2DB2E
102
}
330
2DB2E
100
AcDbScale
 70
     0
300
100:1
140
100.0
141
1.0
290
     0
  0
TABLESTYLE
  5
1948
102
{ACAD_XDICTIONARY
360
2DBEE
102
}
102
{ACAD_REACTORS
330
1947
102
}
330
1947
100
AcDbTableStyle
  3
Standard
 70
     0
 71
     0
 40
1.5
 41
1.5
280
     0
281
     0
  7
Standard
140
4.5
170
     2
 62
     0
 63
     7
283
     0
274
    -2
284
     1
 64
     0
275
    -2
285
     1
 65
     0
276
    -2
286
     1
 66
     0
277
    -2
287
     1
 67
     0
278
    -2
288
     1
 68
     0
279
    -2
289
     1
 69
     0
  7
Standard
140
6.0
170
     5
 62
     0
 63
     7
283
     0
274
    -2
284
     1
 64
     0
275
    -2
285
     1
 65
     0
276
    -2
286
     1
 66
     0
277
    -2
287
     1
 67
     0
278
    -2
288
     1
 68
     0
279
    -2
289
     1
 69
     0
  7
Standard
140
4.5
170
     5
 62
     0
 63
     7
283
     0
274
    -2
284
     1
 64
     0
275
    -2
285
     1
 65
     0
276
    -2
286
     1
 66
     0
277
    -2
287
     1
 67
     0
278
    -2
288
     1
 68
     0
279
    -2
289
     1
 69
     0
  0
VISUALSTYLE
  5
2DB1B
102
{ACAD_XDICTIONARY
360
2DC02
102
}
102
{ACAD_REACTORS
330
2DB15
102
}
330
2DB15
100
AcDbVisualStyle
  2
2dWireframe
 70
     4
 71
     0
 72
     2
 73
     0
 90
        0
 40
-0.6
 41
-30.0
 62
     5
 63
     7
421
 16777215
 74
     1
 91
        4
 64
     7
 65
   257
 75
     1
175
     1
 42
1.0
 92
        0
 66
   257
 43
1.0
 76
     1
 77
     6
 78
     2
 67
     7
 79
     5
170
     0
171
     0
290
     0
174
     0
 93
        1
 44
0.0
173
     0
291
     0
 45
0.0
1001
ACAD
1000
AcDbSavedByObjectVersion
1070
     0
  0
VISUALSTYLE
  5
2DB1A
102
{ACAD_XDICTIONARY
360
2DC00
102
}
102
{ACAD_REACTORS
330
2DB15
102
}
330
2DB15
100
AcDbVisualStyle
  2
Basic
 70
     7
 71
     1
 72
     0
 73
     1
 90
        0
 40
-0.6
 41
-30.0
 62
     5
 63
     7
421
 16777215
 74
     0
 91
        4
 64
     7
 65
   257
 75
     1
175
     1
 42
1.0
 92
        8
 66
     7
 43
1.0
 76
     1
 77
     6
 78
     2
 67
     7
 79
     5
170
     0
171
     0
290
     0
174
     0
 93
        1
 44
0.0
173
     0
291
     1
 45
0.0
1001
ACAD
1000
AcDbSavedByObjectVersion
1070
     0
  0
VISUALSTYLE
  5
2DB21
102
{ACAD_XDICTIONARY
360
2DC0E
102
}
102
{ACAD_REACTORS
330
2DB15
102
}
330
2DB15
100
AcDbVisualStyle
  2
Brighten
 70
    12
 71
     2
 72
     2
 73
     0
 90
        0
 40
-0.6
 41
-30.0
 62
     5
 63
     7
421
 16777215
 74
     1
 91
        4
 64
     7
 65
   257
 75
     1
175
     1
 42
1.0
 92
        8
 66
     7
 43
1.0
 76
     1
 77
     6
 78
     2
 67
     7
 79
     5
170
     0
171
     0
290
     0
174
     0
 93
        1
 44
50.0
173
     0
291
     1
 45
0.0
1001
ACAD
1000
AcDbSavedByObjectVersion
1070
     0
  0
VISUALSTYLE
  5
2DB25
102
{ACAD_XDICTIONARY
360
2DC16
102
}
102
{ACAD_REACTORS
330
2DB15
102
}
330
2DB15
100
AcDbVisualStyle
  2
ColorChange
 70
    16
 71
     2
 72
     2
 73
     3
 90
        0
 40
-0.6
 41
-30.0
 62
     5
 63
     8
421
  8421504
 74
     1
 91
        4
 64
     7
 65
   257
 75
     1
175
     1
 42
1.0
 92
        8
 66
     8
424
  8421504
 43
1.0
 76
     1
 77
     6
 78
     2
 67
     7
 79
     5
170
     0
171
     0
290
     0
174
     0
 93
        1
 44
0.0
173
     0
291
     1
 45
0.0
1001
ACAD
1000
AcDbSavedByObjectVersion
1070
     0
  0
VISUALSTYLE
  5
2DB1E
102
{ACAD_XDICTIONARY
360
2DC08
102
}
102
{ACAD_REACTORS
330
2DB15
102
}
330
2DB15
100
AcDbVisualStyle
  2
Conceptual
 70
     9
 71
     3
 72
     2
 73
     0
 90
        0
 40
-0.6
 41
-30.0
 62
     5
 63
     7
421
 16777215
 74
     2
 91
        2
 64
     7
 65
   257
 75
     1
175
     1
 42
179.0
 92
        8
 66
     7
 43
1.0
 76
     1
 77
     6
 78
     2
 67
     7
 79
     3
170
     0
171
     0
290
     0
174
     0
 93
        1
 44
0.0
173
     0
291
     0
 45
0.0
1001
ACAD
1000
AcDbSavedByObjectVersion
1070
     0
  0
VISUALSTYLE
  5
2DB20
102
{ACAD_XDICTIONARY
360
2DC0C
102
}
102
{ACAD_REACTORS
330
2DB15
102
}
330
2DB15
100
AcDbVisualStyle
  2
Dim
 70
    11
 71
     2
 72
     2
 73
     0
 90
        0
 40
-0.6
 41
-30.0
 62
     5
 63
     7
421
 16777215
 74
     1
 91
        4
 64
     7
 65
   257
 75
     1
175
     1
 42
1.0
 92
        8
 66
     7
 43
1.0
 76
     1
 77
     6
 78
     2
 67
     7
 79
     5
170
     0
171
     0
290
     0
174
     0
 93
        1
 44
-50.0
173
     0
291
     1
 45
0.0
1001
ACAD
1000
AcDbSavedByObjectVersion
1070
     0
  0
VISUALSTYLE
  5
2DB2D
102
{ACAD_XDICTIONARY
360
2DC26
102
}
102
{ACAD_REACTORS
330
2DB15
102
}
330
2DB15
100
AcDbVisualStyle
  2
EdgeColorOff
 70
    22
 71
     2
 72
     2
 73
     0
 90
        0
 40
-0.6
 41
-30.0
 62
     5
 63
     7
421
 16777215
 74
     1
 91
        4
 64
     7
 65
   257
 75
     1
175
     1
 42
1.0
 92
        8
 66
     7
 43
1.0
 76
     1
 77
     6
 78
     2
 67
     7
 79
     5
170
     0
171
     0
290
     0
174
     0
 93
        1
 44
0.0
173
     0
291
     1
 45
0.0
1001
ACAD
1000
AcDbSavedByObjectVersion
1070
     0
  0
VISUALSTYLE
  5
2DB24
102
{ACAD_XDICTIONARY
360
2DC14
102
}
102
{ACAD_REACTORS
330
2DB15
102
}
330
2DB15
100
AcDbVisualStyle
  2
Facepattern
 70
    15
 71
     2
 72
     2
 73
     0
 90
        0
 40
-0.6
 41
-30.0
 62
     5
 63
     7
421
 16777215
 74
     1
 91
        4
 64
     7
 65
   257
 75
     1
175
     1
 42
1.0
 92
        8
 66
     7
 43
1.0
 76
     1
 77
     6
 78
     2
 67
     7
 79
     5
170
     0
171
     0
290
     0
174
     0
 93
        1
 44
0.0
173
     0
291
     1
 45
0.0
1001
ACAD
1000
AcDbSavedByObjectVersion
1070
     0
  0
VISUALSTYLE
  5
2DB16
102
{ACAD_XDICTIONARY
360
2DBF8
102
}
102
{ACAD_REACTORS
330
2DB15
102
}
330
2DB15
100
AcDbVisualStyle
  2
Flat
 70
     0
 71
     2
 72
     1
 73
     1
 90
        2
 40
-0.6
 41
30.0
 62
     5
 63
     7
421
 16777215
 74
     0
 91
        0
 64
     7
 65
   257
 75
     1
175
     1
 42
1.0
 92
        8
 66
     7
 43
1.0
 76
     1
 77
     6
 78
     2
 67
     7
 79
     5
170
     0
171
     0
290
     0
174
     0
 93
       13
 44
0.0
173
     0
291
     1
 45
0.0
1001
ACAD
1000
AcDbSavedByObjectVersion
1070
     0
  0
VISUALSTYLE
  5
2DB17
102
{ACAD_XDICTIONARY
360
2DBFA
102
}
102
{ACAD_REACTORS
330
2DB15
102
}
330
2DB15
100
AcDbVisualStyle
  2
FlatWithEdges
 70
     1
 71
     2
 72
     1
 73
     1
 90
        2
 40
-0.6
 41
30.0
 62
     5
 63
     7
421
 16777215
 74
     1
 91
        0
 64
     7
 65
   257
 75
     1
175
     1
 42
1.0
 92
        0
 66
   257
 43
1.0
 76
     1
 77
     6
 78
     2
 67
     7
 79
     5
170
     0
171
     0
290
     0
174
     0
 93
       13
 44
0.0
173
     0
291
     1
 45
0.0
1001
ACAD
1000
AcDbSavedByObjectVersion
1070
     0
  0
VISUALSTYLE
  5
2DB18
102
{ACAD_XDICTIONARY
360
2DBFC
102
}
102
{ACAD_REACTORS
330
2DB15
102
}
330
2DB15
100
AcDbVisualStyle
  2
Gouraud
 70
     2
 71
     2
 72
     2
 73
     1
 90
        2
 40
-0.6
 41
30.0
 62
     5
 63
     7
421
 16777215
 74
     0
 91
        0
 64
     7
 65
   257
 75
     1
175
     1
 42
1.0
 92
        0
 66
     7
 43
1.0
 76
     1
 77
     6
 78
     2
 67
     7
 79
     5
170
     0
171
     0
290
     0
174
     0
 93
       13
 44
0.0
173
     0
291
     1
 45
0.0
1001
ACAD
1000
AcDbSavedByObjectVersion
1070
     0
  0
VISUALSTYLE
  5
2DB19
102
{ACAD_XDICTIONARY
360
2DBFE
102
}
102
{ACAD_REACTORS
330
2DB15
102
}
330
2DB15
100
AcDbVisualStyle
  2
GouraudWithEdges
 70
     3
 71
     2
 72
     2
 73
     1
 90
        2
 40
-0.6
 41
30.0
 62
     5
 63
     7
421
 16777215
 74
     1
 91
        0
 64
     7
 65
   257
 75
     1
175
     1
 42
1.0
 92
        0
 66
   257
 43
1.0
 76
     1
 77
     6
 78
     2
 67
     7
 79
     5
170
     0
171
     0
290
     0
174
     0
 93
       13
 44
0.0
173
     0
291
     1
 45
0.0
1001
ACAD
1000
AcDbSavedByObjectVersion
1070
     0
  0
VISUALSTYLE
  5
2DB1D
102
{ACAD_XDICTIONARY
360
2DC06
102
}
102
{ACAD_REACTORS
330
2DB15
102
}
330
2DB15
100
AcDbVisualStyle
  2
Hidden
 70
     6
 71
     1
 72
     2
 73
     2
 90
        0
 40
-0.6
 41
-30.0
 62
     5
 63
     7
421
 16777215
 74
     2
 91
        2
 64
     7
 65
   257
 75
     2
175
     1
 42
40.0
 92
        0
 66
   257
 43
1.0
 76
     1
 77
     6
 78
     2
 67
     7
 79
     3
170
     0
171
     0
290
     0
174
     0
 93
        1
 44
0.0
173
     0
291
     0
 45
0.0
1001
ACAD
1000
AcDbSavedByObjectVersion
1070
     0
  0
VISUALSTYLE
  5
2DB2B
102
{ACAD_XDICTIONARY
360
2DC22
102
}
102
{ACAD_REACTORS
330
2DB15
102
}
330
2DB15
100
AcDbVisualStyle
  2
JitterOff
 70
    20
 71
     2
 72
     2
 73
     0
 90
        0
 40
-0.6
 41
-30.0
 62
     5
 63
     7
421
 16777215
 74
     1
 91
        4
 64
     7
 65
   257
 75
     1
175
     1
 42
1.0
 92
       10
 66
     7
 43
1.0
 76
     1
 77
     6
 78
     2
 67
     7
 79
     5
170
     0
171
     0
290
     0
174
     0
 93
        1
 44
0.0
173
     0
291
     1
 45
0.0
1001
ACAD
1000
AcDbSavedByObjectVersion
1070
     0
  0
VISUALSTYLE
  5
2DB23
102
{ACAD_XDICTIONARY
360
2DC12
102
}
102
{ACAD_REACTORS
330
2DB15
102
}
330
2DB15
100
AcDbVisualStyle
  2
Linepattern
 70
    14
 71
     2
 72
     2
 73
     0
 90
        0
 40
-0.6
 41
-30.0
 62
     5
 63
     7
421
 16777215
 74
     1
 91
        4
 64
     7
 65
   257
 75
     7
175
     7
 42
1.0
 92
        8
 66
     7
 43
1.0
 76
     1
 77
     6
 78
     2
 67
     7
 79
     5
170
     0
171
     0
290
     0
174
     0
 93
        1
 44
0.0
173
     0
291
     1
 45
0.0
1001
ACAD
1000
AcDbSavedByObjectVersion
1070
     0
  0
VISUALSTYLE
  5
2DB2C
102
{ACAD_XDICTIONARY
360
2DC24
102
}
102
{ACAD_REACTORS
330
2DB15
102
}
330
2DB15
100
AcDbVisualStyle
  2
OverhangOff
 70
    21
 71
     2
 72
     2
 73
     0
 90
        0
 40
-0.6
 41
-30.0
 62
     5
 63
     7
421
 16777215
 74
     1
 91
        4
 64
     7
 65
   257
 75
     1
175
     1
 42
1.0
 92
        9
 66
     7
 43
1.0
 76
     1
 77
     6
 78
     2
 67
     7
 79
     5
170
     0
171
     0
290
     0
174
     0
 93
        1
 44
0.0
173
     0
291
     1
 45
0.0
1001
ACAD
1000
AcDbSavedByObjectVersion
1070
     0
  0
VISUALSTYLE
  5
2DB1F
102
{ACAD_XDICTIONARY
360
2DC0A
102
}
102
{ACAD_REACTORS
330
2DB15
102
}
330
2DB15
100
AcDbVisualStyle
  2
Realistic
 70
     8
 71
     2
 72
     3
 73
     0
 90
        2
 40
-0.6
 41
30.0
 62
     5
 63
     7
421
 16777215
 74
     0
 91
        0
 64
     7
 65
   257
 75
     1
175
     1
 42
1.0
 92
        8
 66
   257
 43
1.0
 76
     1
 77
     6
 78
     2
 67
     7
 79
     3
170
     0
171
     0
290
     0
174
     0
 93
       13
 44
0.0
173
     0
291
     0
 45
0.0
1001
ACAD
1000
AcDbSavedByObjectVersion
1070
     0
  0
VISUALSTYLE
  5
2DB2A
102
{ACAD_XDICTIONARY
360
2DC20
102
}
102
{ACAD_REACTORS
330
2DB15
102
}
330
2DB15
100
AcDbVisualStyle
  2
Shaded
 70
    27
 71
     2
 72
     2
 73
     1
 90
        2
 40
-0.6
 41
30.0
 62
     5
 63
     7
421
 16777215
 74
     0
 91
        4
 64
     7
 65
   257
 75
     1
175
     1
 42
1.0
 92
        8
 66
   257
 43
1.0
 76
     1
 77
     6
 78
     2
 67
     8
425
  7895160
 79
     3
170
     0
171
     0
290
     0
174
     0
 93
        5
 44
0.0
173
     0
291
     0
 45
0.0
1001
ACAD
1000
AcDbSavedByObjectVersion
1070
     0
  0
VISUALSTYLE
  5
2DB29
102
{ACAD_XDICTIONARY
360
2DC1E
102
}
102
{ACAD_REACTORS
330
2DB15
102
}
330
2DB15
100
AcDbVisualStyle
  2
Shaded with edges
 70
    26
 71
     2
 72
     2
 73
     1
 90
        2
 40
-0.6
 41
30.0
 62
     5
 63
     7
421
 16777215
 74
     1
 91
       10
 64
     7
 65
   257
 75
     2
175
     1
 42
1.0
 92
        8
 66
   257
 43
1.0
 76
     1
 77
     6
 78
     2
 67
     7
 79
     3
170
     0
171
     0
290
     0
174
     0
 93
        5
 44
0.0
173
     0
291
     0
 45
0.0
1001
ACAD
1000
AcDbSavedByObjectVersion
1070
     0
  0
VISUALSTYLE
  5
2DB26
102
{ACAD_XDICTIONARY
360
2DC18
102
}
102
{ACAD_REACTORS
330
2DB15
102
}
330
2DB15
100
AcDbVisualStyle
  2
Shades of Gray
 70
    23
 71
     2
 72
     2
 73
     3
 90
        0
 40
-0.6
 41
-30.0
 62
     5
 63
     7
421
 16777215
 74
     2
 91
        2
 64
     7
 65
     7
 75
     1
175
     1
 42
40.0
 92
        8
 66
     7
 43
1.0
 76
     1
 77
     6
 78
     2
 67
     7
 79
     3
170
     0
171
     0
290
     0
174
     0
 93
        1
 44
0.0
173
     0
291
     0
 45
0.0
1001
ACAD
1000
AcDbSavedByObjectVersion
1070
     0
  0
VISUALSTYLE
  5
2DB27
102
{ACAD_XDICTIONARY
360
2DC1A
102
}
102
{ACAD_REACTORS
330
2DB15
102
}
330
2DB15
100
AcDbVisualStyle
  2
Sketchy
 70
    24
 71
     1
 72
     2
 73
     2
 90
        0
 40
-0.6
 41
-30.0
 62
     5
 63
     7
421
 16777215
 74
     2
 91
        2
 64
     7
 65
     7
 75
     1
175
     1
 42
40.0
 92
       11
 66
     7
 43
1.0
 76
     1
 77
     6
 78
     2
 67
     7
 79
     6
170
     0
171
     0
290
     0
174
     0
 93
        1
 44
0.0
173
     0
291
     0
 45
0.0
1001
ACAD
1000
AcDbSavedByObjectVersion
1070
     0
  0
VISUALSTYLE
  5
2DB22
102
{ACAD_XDICTIONARY
360
2DC10
102
}
102
{ACAD_REACTORS
330
2DB15
102
}
330
2DB15
100
AcDbVisualStyle
  2
Thicken
 70
    13
 71
     2
 72
     2
 73
     0
 90
        0
 40
-0.6
 41
-30.0
 62
     5
 63
     7
421
 16777215
 74
     1
 91
        4
 64
     7
 65
   257
 75
     1
175
     1
 42
1.0
 92
       12
 66
     7
 43
1.0
 76
     1
 77
     6
 78
     2
 67
     7
 79
     5
170
     0
171
     0
290
     0
174
     0
 93
        1
 44
0.0
173
     0
291
     1
 45
0.0
1001
ACAD
1000
AcDbSavedByObjectVersion
1070
     0
  0
VISUALSTYLE
  5
2DB1C
102
{ACAD_XDICTIONARY
360
2DC04
102
}
102
{ACAD_REACTORS
330
2DB15
102
}
330
2DB15
100
AcDbVisualStyle
  2
Wireframe
 70
     5
 71
     0
 72
     2
 73
     0
 90
        0
 40
-0.6
 41
-30.0
 62
     5
 63
     7
421
 16777215
 74
     1
 91
        4
 64
     7
 65
   257
 75
     1
175
     1
 42
1.0
 92
        0
 66
   257
 43
1.0
 76
     1
 77
     6
 78
     2
 67
     7
 79
     3
170
     0
171
     0
290
     0
174
     0
 93
        1
 44
0.0
173
     0
291
     0
 45
0.0
1001
ACAD
1000
AcDbSavedByObjectVersion
1070
     0
  0
VISUALSTYLE
  5
2DB28
102
{ACAD_XDICTIONARY
360
2DC1C
102
}
102
{ACAD_REACTORS
330
2DB15
102
}
330
2DB15
100
AcDbVisualStyle
  2
X-Ray
 70
    25
 71
     2
 72
     2
 73
     1
 90
        1
 40
0.5
 41
-30.0
 62
     5
 63
     7
421
 16777215
 74
     1
 91
        0
 64
     7
 65
   257
 75
     1
175
     1
 42
1.0
 92
        8
 66
     7
 43
1.0
 76
     1
 77
     6
 78
     2
 67
     7
 79
     3
170
     0
171
     0
290
     0
174
     0
 93
       13
 44
0.0
173
     0
291
     0
 45
0.0
1001
ACAD
1000
AcDbSavedByObjectVersion
1070
     0
  0
DICTIONARYVAR
  5
2DB53
102
{ACAD_REACTORS
330
5E
102
}
330
5E
100
DictionaryVariables
280
     0
  1
1:1
  0
DICTIONARYVAR
  5
2DB52
102
{ACAD_REACTORS
330
5E
102
}
330
5E
100
DictionaryVariables
280
     0
  1
STANDARD
  0
DICTIONARYVAR
  5
1955
102
{ACAD_REACTORS
330
5E
102
}
330
5E
100
DictionaryVariables
280
     0
  1
STANDARD
  0
DICTIONARYVAR
  5
5F
102
{ACAD_REACTORS
330
5E
102
}
330
5E
100
DictionaryVariables
280
     0
  1
2
  0
DICTIONARYVAR
  5
63
102
{ACAD_REACTORS
330
5E
102
}
330
5E
100
DictionaryVariables
280
     0
  1
1
  0
XRECORD
  5
2DAF9
102
{ACAD_REACTORS
330
2DAF8
102
}
330
2DAF8
100
AcDbXrecord
280
     1
330
18835
330
190CF
330
198C
330
198D
330
199A
330
199B
330
19A4
330
1A54
330
1A5D
330
1A5E
330
1A69
330
1A6A
330
1A75
330
1A76
330
1A81
330
1A82
330
1ADF
330
1AE0
330
1AE3
330
1AE4
330
18A0F
330
18A10
330
18A18
330
18A19
330
18A21
330
18A22
330
18A2A
330
18A2B
330
18A33
330
18A34
330
18A3C
330
18A3D
330
18A45
330
18A46
330
18A4E
330
18A4F
330
18A5A
330
18A5B
330
18A62
330
18A63
330
18A6C
330
18A6D
330
18A77
330
18A78
330
18A82
330
18A83
330
18A8D
330
18A8E
330
18A98
330
18A99
330
18AA0
330
18AA1
330
18ACD
330
18ACE
330
18AD6
330
18AD7
330
18AE2
330
18AE3
330
18B5A
330
18B5B
330
18B65
330
18B66
330
18B70
330
18B71
330
18AAA
330
18AAB
330
18AB6
330
18AB7
330
18AC2
330
18AC3
330
18BA3
330
18BA4
330
18BAF
330
18BB0
330
18BBB
330
18BBC
330
18BC7
330
18BC8
330
18BD3
330
18BD4
330
18BDF
330
18BE0
330
18BEB
330
18BEC
330
18BF7
330
18BF8
330
18C03
330
18C04
330
18C0F
330
18C10
330
18C1E
330
18C1F
330
18C29
330
18C2A
330
18C36
330
18C37
330
18C44
330
18C45
330
18C52
330
18C53
330
18C60
330
18C61
330
18C6E
330
18C6F
330
18C79
330
18C7A
330
18C85
330
18C86
330
18C91
330
18C92
330
18C9D
330
18C9E
330
18CAC
330
18CAD
330
18CB7
330
18CB8
330
18CC3
330
18CC4
330
18CCF
330
18CD0
330
18CDE
330
18CDF
330
18CEC
330
18CED
330
18CF7
330
18D00
330
18D01
330
18D0F
330
18D10
330
18D1D
330
18D1E
330
18D2B
330
18D2C
330
18D39
330
18D3A
330
18D47
330
18D48
330
18D55
330
18D56
330
18D5F
330
18D6B
330
18D6C
330
18D79
330
18D7A
330
18DB0
330
2BD4A
330
2BD4B
330
2BD8E
330
2BD8F
330
2BE17
330
2BE18
330
2BE0E
330
2BE0F
330
2BEB6
330
2BEB7
330
2BEAB
330
2BEAC
330
2BF57
330
2BF58
330
2C053
330
2C054
330
2C0C1
330
2C0C2
330
2BFE2
330
2BFE3
330
2C015
330
2C016
330
2C049
330
2C04A
330
2C08A
330
2C08B
330
2C09E
330
2C09F
330
2C0B7
330
2C0B8
330
2C0D0
330
2C0D1
330
2C171
330
2C172
330
2C197
330
2C198
330
2C26E
330
2C26F
330
2C289
330
2C28A
330
2C292
330
2C293
330
2C29D
330
2C29E
330
2C359
330
2C35A
330
2C368
330
2C369
330
2C373
330
2C374
330
2C3BD
330
2C3BE
330
2C3DA
330
2C3DB
330
2C642
330
2C643
330
2C65F
330
2C660
330
2C668
330
2C669
330
2C673
330
2C674
330
2C6A4
330
2C6A5
330
2C55E
330
2C55F
330
2C579
330
2C57A
330
2C582
330
2C583
330
2C58D
330
2C58E
330
2C753
330
2C754
330
2C770
330
2C771
330
2C779
330
2C77A
330
2C784
330
2C785
330
2C7B5
330
2C7B6
330
2C825
330
2C826
330
2C840
330
2C841
330
2C849
330
2C84A
330
2C854
330
2C855
330
2CCF1
330
2CCF2
330
2CD0E
330
2CD0F
330
2CD17
330
2CD18
330
2CD22
330
2CD23
330
2CD53
330
2CD54
330
2CC0D
330
2CC0E
330
2CC28
330
2CC29
330
2CC31
330
2CC32
330
2CC3C
330
2CC3D
330
2CE00
330
2CE01
330
2CECF
330
2CED0
330
29431
330
29432
330
2943A
330
2943B
330
29443
330
29444
330
2944C
330
2944D
330
29455
330
29456
330
2945E
330
2945F
330
29467
330
29468
330
29470
330
29471
330
29479
330
2947A
330
29482
330
29483
330
2948B
330
2948C
330
29494
330
29495
330
2949D
330
2949E
330
294A6
330
294A7
330
294B2
330
294B3
330
294BD
330
294BE
330
294C8
330
294C9
330
29334
330
29335
330
2932C
330
2932D
330
291F5
330
291F6
330
291EC
330
291ED
330
29321
330
29322
330
29392
330
29393
330
2938A
330
2938B
330
2937E
330
2937F
330
29375
330
29376
330
2936C
330
2936D
330
29363
330
29364
330
2935A
330
2935B
330
29351
330
29352
330
29349
330
2934A
330
29270
330
29271
330
29267
330
29268
330
294FF
330
29500
330
294D8
330
294D9
330
294E1
330
294E2
330
294ED
330
294EE
330
294F5
330
294F6
330
2940D
330
2940E
330
29416
330
29417
330
2941F
330
29420
330
29428
330
29429
330
29567
330
29568
330
29576
330
29577
330
29581
330
29582
330
295C9
330
295CA
330
295ED
330
295EE
330
29AD4
330
29AD5
330
29AE0
330
29AE1
330
29AEB
330
29AEC
330
29AF3
330
29AF4
330
29AFF
330
29B00
330
29B07
330
29B08
330
29B10
330
29B11
330
29B1C
330
29B1D
330
29B24
330
29B25
330
29B30
330
29B31
330
29B4A
330
29B4B
330
29B38
330
29B39
330
29B41
330
29B42
330
29A96
330
29A97
330
29A9F
330
29AA0
330
29AA8
330
29AA9
330
29AB1
330
29AB2
330
29ABA
330
29ABB
330
29AC3
330
29AC4
330
29C78
330
29C79
330
29C94
330
29C95
330
29C61
330
29C62
330
29C6D
330
29C6E
330
29C80
330
29C81
330
29C8C
330
29C8D
330
2AA34
330
2AA35
330
2D125
330
2D126
330
2D142
330
2D143
330
2D15F
330
2D160
330
2D19E
330
2D19F
330
2B6AF
330
2B6C7
330
2B6C8
330
2ACC0
330
2AA29
330
2AA2A
330
2AA41
330
2AA42
330
2B690
330
2B691
330
2B69C
330
2B69D
330
2B6A7
330
2B6A8
330
2B6B5
330
2B6B6
330
2B6BE
330
2B6BF
330
2B6D3
330
2B6D4
330
2B75F
330
2D207
330
2D208
330
2D222
330
2D223
330
2D22B
330
2D22C
330
2AC94
330
2AC95
330
2ACA0
330
2ACA1
330
2ACAF
330
2ACB0
330
2ACDC
330
2ACC7
330
2ACC8
330
2B6FF
330
2B717
330
2B718
330
2B372
330
2B38A
330
2B38B
330
2D3AC
330
2D3AD
330
2D3C9
330
2D3CA
330
2D3E6
330
2D3E7
330
2D425
330
2D426
330
2B6E0
330
2B6E1
330
2B6EC
330
2B6ED
330
2B6F7
330
2B6F8
330
2B705
330
2B706
330
2B70E
330
2B70F
330
2B723
330
2B724
330
2B764
330
2D2DE
330
2D2DF
330
2D2F9
330
2D2FA
330
2D302
330
2D303
330
2B351
330
2B352
330
2B35A
330
2B35B
330
2B366
330
2B367
330
2B4C6
330
2B378
330
2B379
330
2B381
330
2B382
330
2B396
330
2B397
  0
DICTIONARY
  5
2DBEC
330
22
100
AcDbDictionary
280
     1
281
     1
  3
ADSK_XREC_LAYOUTTHUMBNAIL
360
2DBED
  0
DICTIONARY
  5
2DB06
330
2DB05
100
AcDbDictionary
280
     1
281
     1
  3
ACAD_XREC_ROUNDTRIP
360
2DBF6
  3
BUMPTILE
360
2DB08
  3
DIFFUSETILE
360
2DB07
  3
OPACITYTILE
360
2DB0B
  3
REFLECTIONTILE
360
2DB0A
  3
REFRACTIONTILE
360
2DB0C
  3
SPECULARTILE
360
2DB09
  0
DICTIONARY
  5
2DAFE
330
2DAFD
100
AcDbDictionary
280
     1
281
     1
  3
ACAD_XREC_ROUNDTRIP
360
2DBF5
  3
BUMPTILE
360
2DB00
  3
DIFFUSETILE
360
2DAFF
  3
OPACITYTILE
360
2DB03
  3
REFLECTIONTILE
360
2DB02
  3
REFRACTIONTILE
360
2DB04
  3
SPECULARTILE
360
2DB01
  0
DICTIONARY
  5
2DB0E
330
2DB0D
100
AcDbDictionary
280
     1
281
     1
  3
ACAD_XREC_ROUNDTRIP
360
2DBF7
  3
BUMPTILE
360
2DB10
  3
DIFFUSETILE
360
2DB0F
  3
OPACITYTILE
360
2DB13
  3
REFLECTIONTILE
360
2DB12
  3
REFRACTIONTILE
360
2DB14
  3
SPECULARTILE
360
2DB11
  0
DICTIONARY
  5
2DBEE
330
1948
100
AcDbDictionary
280
     1
281
     1
  3
ACAD_ROUNDTRIP_2008_TABLESTYLE_CELLSTYLEMAP
360
2DBEF
  3
ACAD_XREC_ROUNDTRIP
360
2DBF4
  0
DICTIONARY
  5
2DC02
330
2DB1B
100
AcDbDictionary
280
     1
281
     1
  3
ACAD_XREC_ROUNDTRIP
360
2DC03
  0
DICTIONARY
  5
2DC00
330
2DB1A
100
AcDbDictionary
280
     1
281
     1
  3
ACAD_XREC_ROUNDTRIP
360
2DC01
  0
DICTIONARY
  5
2DC0E
330
2DB21
100
AcDbDictionary
280
     1
281
     1
  3
ACAD_XREC_ROUNDTRIP
360
2DC0F
  0
DICTIONARY
  5
2DC16
330
2DB25
100
AcDbDictionary
280
     1
281
     1
  3
ACAD_XREC_ROUNDTRIP
360
2DC17
  0
DICTIONARY
  5
2DC08
330
2DB1E
100
AcDbDictionary
280
     1
281
     1
  3
ACAD_XREC_ROUNDTRIP
360
2DC09
  0
DICTIONARY
  5
2DC0C
330
2DB20
100
AcDbDictionary
280
     1
281
     1
  3
ACAD_XREC_ROUNDTRIP
360
2DC0D
  0
DICTIONARY
  5
2DC26
330
2DB2D
100
AcDbDictionary
280
     1
281
     1
  3
ACAD_XREC_ROUNDTRIP
360
2DC27
  0
DICTIONARY
  5
2DC14
330
2DB24
100
AcDbDictionary
280
     1
281
     1
  3
ACAD_XREC_ROUNDTRIP
360
2DC15
  0
DICTIONARY
  5
2DBF8
330
2DB16
100
AcDbDictionary
280
     1
281
     1
  3
ACAD_XREC_ROUNDTRIP
360
2DBF9
  0
DICTIONARY
  5
2DBFA
330
2DB17
100
AcDbDictionary
280
     1
281
     1
  3
ACAD_XREC_ROUNDTRIP
360
2DBFB
  0
DICTIONARY
  5
2DBFC
330
2DB18
100
AcDbDictionary
280
     1
281
     1
  3
ACAD_XREC_ROUNDTRIP
360
2DBFD
  0
DICTIONARY
  5
2DBFE
330
2DB19
100
AcDbDictionary
280
     1
281
     1
  3
ACAD_XREC_ROUNDTRIP
360
2DBFF
  0
DICTIONARY
  5
2DC06
330
2DB1D
100
AcDbDictionary
280
     1
281
     1
  3
ACAD_XREC_ROUNDTRIP
360
2DC07
  0
DICTIONARY
  5
2DC22
330
2DB2B
100
AcDbDictionary
280
     1
281
     1
  3
ACAD_XREC_ROUNDTRIP
360
2DC23
  0
DICTIONARY
  5
2DC12
330
2DB23
100
AcDbDictionary
280
     1
281
     1
  3
ACAD_XREC_ROUNDTRIP
360
2DC13
  0
DICTIONARY
  5
2DC24
330
2DB2C
100
AcDbDictionary
280
     1
281
     1
  3
ACAD_XREC_ROUNDTRIP
360
2DC25
  0
DICTIONARY
  5
2DC0A
330
2DB1F
100
AcDbDictionary
280
     1
281
     1
  3
ACAD_XREC_ROUNDTRIP
360
2DC0B
  0
DICTIONARY
  5
2DC20
330
2DB2A
100
AcDbDictionary
280
     1
281
     1
  3
ACAD_XREC_ROUNDTRIP
360
2DC21
  0
DICTIONARY
  5
2DC1E
330
2DB29
100
AcDbDictionary
280
     1
281
     1
  3
ACAD_XREC_ROUNDTRIP
360
2DC1F
  0
DICTIONARY
  5
2DC18
330
2DB26
100
AcDbDictionary
280
     1
281
     1
  3
ACAD_XREC_ROUNDTRIP
360
2DC19
  0
DICTIONARY
  5
2DC1A
330
2DB27
100
AcDbDictionary
280
     1
281
     1
  3
ACAD_XREC_ROUNDTRIP
360
2DC1B
  0
DICTIONARY
  5
2DC10
330
2DB22
100
AcDbDictionary
280
     1
281
     1
  3
ACAD_XREC_ROUNDTRIP
360
2DC11
  0
DICTIONARY
  5
2DC04
330
2DB1C
100
AcDbDictionary
280
     1
281
     1
  3
ACAD_XREC_ROUNDTRIP
360
2DC05
  0
DICTIONARY
  5
2DC1C
330
2DB28
100
AcDbDictionary
280
     1
281
     1
  3
ACAD_XREC_ROUNDTRIP
360
2DC1D
  0
XRECORD
  5
2DBED
102
{ACAD_REACTORS
330
2DBEC
102
}
330
2DBEC
100
AcDbXrecord
280
     1
310
280000000001000077000000010008000000000000770000000000000000000000010000000000003028210000000000FFFFFF000000000000000000000000000000000000000000000000000000000000000000330000006600000099000000CC000000FF00000000330000333300006633000099330000CC330000FF3300
310
0000660000336600006666000099660000CC660000FF66000000990000339900006699000099990000CC990000FF99000000CC000033CC000066CC000099CC0000CCCC0000FFCC000000FF000033FF000066FF000099FF0000CCFF0000FFFF000000003300330033006600330099003300CC003300FF003300003333003333
310
33006633330099333300CC333300FF33330000663300336633006666330099663300CC663300FF66330000993300339933006699330099993300CC993300FF99330000CC330033CC330066CC330099CC3300CCCC3300FFCC330000FF330033FF330066FF330099FF3300CCFF3300FFFF330000006600330066006600660099
310
006600CC006600FF00660000336600333366006633660099336600CC336600FF33660000666600336666006666660099666600CC666600FF66660000996600339966006699660099996600CC996600FF99660000CC660033CC660066CC660099CC6600CCCC6600FFCC660000FF660033FF660066FF660099FF6600CCFF6600
310
FFFF660000009900330099006600990099009900CC009900FF00990000339900333399006633990099339900CC339900FF33990000669900336699006666990099669900CC669900FF66990000999900339999006699990099999900CC999900FF99990000CC990033CC990066CC990099CC9900CCCC9900FFCC990000FF99
310
0033FF990066FF990099FF9900CCFF9900FFFF99000000CC003300CC006600CC009900CC00CC00CC00FF00CC000033CC003333CC006633CC009933CC00CC33CC00FF33CC000066CC003366CC006666CC009966CC00CC66CC00FF66CC000099CC003399CC006699CC009999CC00CC99CC00FF99CC0000CCCC0033CCCC0066CC
310
CC0099CCCC00CCCCCC00FFCCCC0000FFCC0033FFCC0066FFCC0099FFCC00CCFFCC00FFFFCC000000FF003300FF006600FF009900FF00CC00FF00FF00FF000033FF003333FF006633FF009933FF00CC33FF00FF33FF000066FF003366FF006666FF009966FF00CC66FF00FF66FF000099FF003399FF006699FF009999FF00CC
310
99FF00FF99FF0000CCFF0033CCFF0066CCFF0099CCFF00CCCCFF00FFCCFF0000FFFF0033FFFF0066FFFF0099FFFF00CCFFFF00FFFFFF00000000000D0D0D001A1A1A00282828003535350043434300505050005D5D5D006B6B6B00787878008686860093939300A1A1A100AEAEAE00BBBBBB00C9C9C900D6D6D600E4E4E400
310
F1F1F100FFFFFF000000000000000000000000000000000000000000000000000000000000000000000000000000000000000000000000000000000000000000000000000000000000000000000000000000000000000000000000000000000000000000000000000000000000000000000000000000000000000000000000
310
00000000000000000000000000000000000000000000000000000000000000000000000000000000000000000000000000000000000000000000000000000000000000000000000000000000000000000000000000000000000000000000000000000000000000000000000000000000000000000000000000000000000000
310
00000000000000000000000000000000000000000000000000000000000000000000000000000000000000000000000000000000000000000000000000000000000000000000000000000000000000000000000000000000000000000000000000000000000000000000000000000000000000000000000000000000000000
310
0000000000000000000000000000000000000000000000000000000000000000000000000000000000000000000000000000000000000000000000000000000000000000000000000000000000000000000000000000000000000000000000002D2D2D2D2D2D2D2D2D2D2D2D2D2D2D2D2D2D2D2D2D2D2D2D2D2D2D2D2D0000
310
00000000000000000000000000000000000000000000000000000000000000000000000000000000000000000000000000000000000000000000000000000000000000000000000000000000000000000000000000000000000000000000000000000000000000000000000000000000000000000000000000000000000000
310
00000000000000000000000000000000000000000000000000000000000000000000000000000000000000000000000000000000000000000000000000000000000000000000000000000000000000000000000000000000000000000000000000002D000000000000000000000000002D2D0000000000000000000000002D
310
00000000000000000000000000000000000000000000000000000000000000000000000000000000000000000000000000000000000000000000000000000000000000000000000000000000000000000000000000000000000000000000000000000000000000000000000000000000000000000000000000000000000000
310
000000000000000000000000000000000000000000000000000000000000000000000000000000000000000000000000000000000000000000000000000000000000000000000000000000000000000000000000000000000000000000000000000000002D2D00000000000000000000000000000000000000000000002D00
310
2D2D0000000000000000000000000000000000000000000000000000000000000000000000000000000000000000000000000000000000000000000000000000000000000000000000000000000000000000000000000000000000000000000000000000000000000000000000000000000000000000000000000000000000
310
0000000000000000000000000000000000000000000000000000000000000000000000000000000000000000000000000000000000000000000000000000000000000000000000000000000000000000000000000000000000000000000000000000000000002D2D2D2D2D2D2D2D2D2D2D2D2D2D2D2D2D2D2D2D2D2D2D2D2D
310
2D2D2D2D000000000000000000000000000000000000000000000000000000000000000000000000000000000000000000000000000000000000000000000000000000000000000000000000000000000000000000000000000000000000000000000000000000000000000000000000000000000000000000000000000000
310
00000000000000000000000000000000000000000000000000000000000000000000000000000000000000000000000000000000000000000000000000000000000000000000000000000000000000000000000000000000000000000000000000000000000000002D0000000000000000000000002D2D0000000000000000
310
0000002D2D2D00000000000000000000000000000000000000000000000000000000000000000000000000000000000000000000000000000000000000000000000000000000000000000000000000000000000000000000000000000000000000000000000000000000000000000000000000000000000000000000000000
310
000000000000000000000000000000000000000000000000000000000000000000000000000000000000000000000000000000000000000000000000000000000000000000000000000000000000000000000000000000000000000000000000000000000000000000002D0000000000000000000000000000000000000000
310
00000000002D002D0000000000000000000000000000000000000000000000000000000000000000000000000000000000000000000000000000000000000000000000000000000000000000000000000000000000000000000000000000000000000000000000000000000000000000000000000000000000000000000000
310
0000000000000000000000000000000000000000000000000000000000000000000000000000000000000000000000000000000000000000000000000000000000000000000000000000000000000000000000000000000000000000000000000000000000000000000000002D000000000000000000000000000000000000
310
000000000000002D002D000000000000000000000000000000000000000000000000000000000000000000000000000000000000000000000000000000000000000000000000000000000000000000000000000000000000000000000000000000000000000000000000000000000000000000000000000000000000000000
310
00000000000000000000000000000000000000000000000000000000000000000000000000000000000000000000000000000000000000000000000000000000000000000000000000000000000000000000000000000000000000000000000000000000000000000000000000002D00000000000000000000000000000000
310
0000000000000000002D002D00000000000000000000000000000000000000000000000000000000000000000000000000000000000000000000000000000000000000000000000000000000000000000000000000000000000000000000000000000000000000000000000000000000000000000000000000000000000000
310
000000000000000000000000000000000000000000000000000000000000000000000000000000000000000000000000000000000000000000000000000000000000000000000000000000000000000000000000000000000000000000000000000000000000000000000000000000002D0000000000000000000000000000
310
000000000000000000F5F52DF52D2D2D2D2D2D2D2D2D2D2D2D2D2D2D000000000000000000000000000000000000000000000000000000000000000000000000000000000000000000000000000000000000000000000000000000000000000000000000000000000000000000000000000000000000000000000000000000
310
0000000000000000000000000000000000000000000000000000000000000000000000000000000000000000000000000000000000000000000000000000000000000000000000000000000000000000000000000000000000000000000000000000000000000000000000000000000000002D000000000000000000000000
310
0000000000000000000000F500F500F5000000000000000000000000002D00000000000000000000000000000000000000000000000000000000000000000000000000000000000000000000000000000000000000000000000000000000000000000000000000000000000000000000000000000000000000000000000000
310
00000000000000000000000000000000000000000000000000000000000000000000000000000000000000000000000000000000000000000000000000000000000000000000000000000000000000000000000000000000000000000000000000002D2D2D2D2D2D2D2D2D2D2D2D2D2D2D2D2D2D2DF5F5DCDCDCDCDCDCDCDC
310
DCDCF5F5F5F5F5F5F5F5F50000F500F500F5000000000000000000000000002D0000000000000000000000000000000000000000000000000000000000000000000000000000000000000000000000000000000000000000000000000000000000000000000000000000000000000000000000000000000000000000000000
310
0000000000000000000000000000000000000000000000002D2D2D2D2D2D2D2D2D2D2D2D2D2D2D2D2D2D2D2D2D2D2D2D2D2D2D2D2D00000000000000000000000000000000000000000000000000000000000000000000000000000000000000000000002D0000000000000000000000000000000000F50000F50000000000
310
000000F5DCDCDCDCDCDCDCDCF5F5F5F500DC00F5000000000000000000000000002D000000000000000000000000000000000000000000000000000000000000000000000000000000000000000000000000000000000000000000000000000000000000000000000000000000000000000000000000000000000000000000
310
00000000000000000000000000000000000000000000000000002D0000000000000000000000002D2D2D0000000000000000000000002D00000000000000000000000000000000000000000000000000000000000000000000000000000000000000000000002D0000000000000000000000000000000000F50000F5000000
310
000000DCDCF5DCDCDCDCDCDCDCDCF5DCDCDC2D2D2D2D2D2D2D2D2D2D2D2D2D2D2D00002D00000000000000000000000000000000000000000000000000000000000000000000000000000000000000000000000000000000000000000000000000000000000000000000000000000000000000000000000000000000000000
310
000000000000000000000000000000000000000000000000000000002D2D00000000000000000000000000000000000000000000002D2D2D2D00000000000000000000000000000000000000000000000000000000000000000000000000000000000000000000002D00002D2D2D2D2D2D2D2D2D2D2D2D2D2D2D2DDCDCF5DC
310
DCDC0000DC2DDCDCDCDCDCDCDCDCDCDCF5DCDCDCDCF5DC2D2D2D2D2D2D2D2D2D00002D2D002D0000000000000000000000000000000000000000000000000000000000000000000000000000000000000000000000000000000000000000000000000000000000000000000000000000000000000000000000000000000000
310
0000000000000000000000000000000000000000000000000000000000002D2D2D2D2D2D2D2D2D2D2D2D2D2D2D2D2D2D2D2D2D2D2D2D2D2D2D2D2D00000000000000000000000000000000000000000000000000000000000000000000000000000000000000000000002D00002D0000000000000000000000000000F50000
310
F500DC00DCDCDC2D00F50000000000000000F50000F500F5002D000000000000002D00002D00002D000000000000000000000000000000000000000000000000000000000000000000000000000000000000000000000000000000000000000000000000000000000000000000000000000000000000000000000000000000
310
00000000000000000000000000000000000000000000000000000000000000002D00000000000000000000002D2D0000000000000000000000002D2D2D00000000000000000000000000000000000000000000000000000000000000000000000000000000000000000000002D00002D0000000000000000000000000000F5
310
0000F500DCDC0000002D00F50000000000000000F50000F500F5002D000000000000002D00002D00002D00000000000000000000000000000000000000000000000000000000000000000000000000000000000000000000000000000000000000000000000000000000000000000000000000000000000000000000000000
310
000000000000000000000000000000000000000000000000000000000000000000002D000000000000000000000000000000000000000000000000002D002D00000000000000000000000000000000000000000000000000000000000000000000000000000000000000000000002D00002D00000000000000000000000000
310
00F50000F500DC000000002D00F50000000000000000F50000F500F5002D000000000000002D00002D00002D0000000000000000000000000000000000000000000000000000000000000000000000000000000000000000000000000000000000000000000000000000000000000000000000000000000000000000000000
310
0000000000000000000000000000000000000000000000000000000000000000000000002D000000000000000000000000000000000000000000000000002D002D00000000000000000000000000000000000000000000000000000000000000000000000000000000000000000000002D00002D0000000000000000000000
310
000000F50000F500DC000000002D00F50000000000000000F50000F500F52D2D000000000000002D00002D00002D000000000000000000000000000000000000000000000000000000000000000000000000000000000000000000000000000000000000000000000000000000000000000000000000000000000000000000
310
00000000000000000000000000000000000000000000000000000000000000000000000000002D000000000000000000000000000000000000000000000000002D002D00000000000000000000000000000000000000000000000000000000000000000000000000000000000000000000002D00002D000000000000000000
310
0000000000F50000F500DC000000002D2D2D2D2D2D2D2D2D2D2DF52D2D2D2D2D2D2D000000000000002D00002D00002D00000000000000000000000000000000000000000000000000000000000000000000000000000000000000000000000000000000000000000000000000000000000000000000000000000000000000
310
000000000000000000000000000000000000000000000000000000000000000000000000000000002D000000000000000000000000000000000000000000000000002D002D00000000000000000000000000000000000000000000000000000000000000000000000000000000000000000000002D00002D00000000000000
310
00000000000000F50000F500DC00000000DC00F50000000000002D2DF50000F500F500F5000000000000002D00002D00002D0000000000000000000000000000000000000000000000000000000000000000000000000000000000000000000000000000000000000000000000000000000000000000000000000000000000
310
0000000000000000000000000000000000000000000000000000000000000000000000000000000000002D00000000000000000000000000000000000000000000F5F5F52DF52D2D2D2D2D2D2D2D2D2D2D2D2D2D2D0000000000000000000000000000000000000000000000000000000000000000002D00002D0000000000
310
000000000000000000F50000F500DC00000000DC00F50000000000000000F50000F500F500F5000000000000002D00002D00002D000000000000000000000000000000000000000000000000000000000000000000000000000000000000000000000000000000000000000000000000000000000000000000000000000000
310
00000000000000000000000000000000000000000000000000000000000000000000000000000000000000002D00F5F5F5F5F5F5F5F5F5F5F500000000000000000000F50000F500F5000000000000000000000000002D2D00000000000000000000000000000000000000000000000000000000000000002D00002D000000
310
0000000000000000000000F50000F500DC00000000DC00F50000000000000000F50000F500F500F5000000000000002D00002D00002D00000000000000000000000000000000000000000000000000000000000000000000000000000000000000000000000000000000000000000000000000000000000000000000000000
310
0000000000000000000000000000000000000000000000000000000000000000002D2D2D2D2D2D2D2D2D2D2D2D2D2DF5DCDCDCDCDCDCDCDCDCDCDCF5F5F5F5F5F5F5F5F500F50000F500F5000000000000000000000000002D0000000000000000000000000000000000000000000000000000000000000000002D00002D00
310
00000000000000000000000000F50000F500DC00000000DC00F50000000000000000F50000F500F500F5000000000000002D00002D00002D0000000000000000000000000000000000000000000000000000000000000000000000000000000000000000000000000000000000000000000000000000000000000000000000
310
000000000000000000000000000000000000000000000000000000000000000000002D2D000000000000000000000000F500F5000000000000000000F5DCDCDCDCDCDCDCDCF5F5F50000DC00F5000000000000000000000000002D0000000000000000000000000000000000000000000000000000000000000000002D0000
310
2D0000000000000000000000000000F50000F500DC00000000DC00F50000000000000000F50000F500F500F5000000000000002D00002D00002D000000000000000000000000000000000000000000000000000000000000000000000000000000000000000000000000000000000000000000000000000000000000000000
310
000000000000000000000000000000000000000000000000000000000000000000000000002D0000002D2D2D2D2D2D2D2D2D2DDCF5DCDCDCDC0000DCDCDCDCDCDCDCDCDCDCDCDCF5DCDCDC2D2D2D2D2D2D2D2D2D2D2D2D2D2D2D2D002D0000000000000000000000000000000000000000000000000000000000000000002D
310
00002D0000000000000000000000000000F50000F500DC00000000DC00F50000000000000000F50000F500F500F5000000000000002D00002D00002D00000000000000000000000000000000000000000000000000000000000000000000000000000000000000000000000000000000000000000000000000000000000000
310
0000000000000000000000000000000000000000000000000000000000000000000000000000002D0000002D0000000000000000F500F5000000DC00DC2DDCDCDCDCDCDCDCDCDCDCDCF5DCDCDCDCF5DC2D2D2D2D2D2D2D2D2D0000002D002D0000000000000000000000000000000000000000000000000000000000000000
310
002D00002D0000000000000000000000000000F50000F500DC00000000DC00F50000000000000000F50000F500F500F5000000000000002D00002D00002D0000000000000000000000000000000000000000000000000000000000000000000000000000000000000000000000000000000000000000000000000000000000
310
00000000000000000000000000000000000000000000000000000000000000000000000000000000002D0000002D0000000000000000F500F500DCDCDCDC002D0000F50000000000000000F500F50000F5002D000000000000002D2D00002D002D000000000000000000000000000000000000000000000000000000000000
310
0000002D00002D0000000000000000000000000000F50000F500DC00000000DC00F50000000000000000F50000F500F500F5000000000000002D00002D00002D000000000000000000000000000000000000000000000000000000000000000000000000000000000000000000000000000000000000000000000000000000
310
000000000000000000000000000000000000000000000000000000000000000000000000000000000000002D0000002D0000000000000000F500F500DC000000002D0000F50000000000000000F500F50000F5002D000000000000002D0000002D002D00000000000000000000000000000000000000000000000000000000
310
00000000002D00002D0000000000000000000000000000F50000F500DC00000000DC00F50000000000000000F50000F500F500F5000000000000002D00002D00002D00000000000000000000000000000000000000000000000000000000000000000000000000000000000000000000000000000000000000000000000000
310
0000000000000000000000000000000000000000000000000000000000000000000000000000000000000000002D0000002D0000000000000000F500F500DC000000002D0000F50000000000000000F500F50000F5002D000000000000002D0000002D002D0000000000000000000000000000000000000000000000000000
310
000000000000002D00002D0000000000000000000000000000F50000F500DC00000000DC00F50000000000000000F50000F500F500F5000000000000002D00002D00002D0000000000000000000000000000000000000000000000000000000000000000000000000000000000000000000000000000000000000000000000
310
00000000000000000000000000000000000000000000000000000000000000000000000000000000000000000000002D0000002D0000000000000000F500F500DC000000002D0000F50000000000000000F500F50000F5002D000000000000002D0000002D002D000000000000000000000000000000000000000000000000
310
0000000000000000002D00002D0000000000000000000000000000F50000F500DC00000000DC00F50000000000000000F50000F500F500F5000000000000002D00002D00002D000000000000000000000000000000000000000000000000000000000000000000000000000000000000000000000000000000000000000000
310
000000000000000000000000000000000000000000000000000000000000000000000000000000000000000000000000002D0000002D0000000000000000F500F500DC000000002D2D2D2D2D2D2D2D2D2D2D2DF52D2D2D2D2D2D2D000000000000002D0000002D002D00000000000000000000000000000000000000000000
310
00000000000000000000002D00002D0000000000000000000000000000F50000F500DC00000000DC00F50000000000000000F50000F500F500F5000000000000002D00002D00002D00000000000000000000000000000000000000000000000000000000000000000000000000000000000000000000000000000000000000
310
0000000000000000000000000000000000000000000000000000000000000000000000000000000000000000000000000000002D0000002D0000000000000000F500F500DC00000000DC0000F500000000002D2D00F500F50000F500F5000000000000002D0000002D002D0000000000000000000000000000000000000000
310
000000000000000000000000002D00002D0000000000000000000000000000F50000F500DC00000000DC00F50000000000000000F50000F500F500F5000000000000002D00002D00002D0000000000000000000000000000000000000000000000000000000000000000000000000000000000000000000000000000000000
310
00000000000000000000000000000000000000000000000000000000000000000000000000000000000000000000000000000000002D0000002D0000000000000000F500F500DC00000000DC0000F500000000002D2D00F500F50000F500F5000000000000002D0000002D002D000000000000000000000000000000000000
310
0000000000000000000000000000002D00002D0000000000000000000000000000F50000F500DC00000000DC00F50000000000000000F50000F500F500F5000000000000002D00002D00002D000000000000000000000000000000000000000000000000000000000000000000000000000000000000000000000000000000
310
000000000000000000000000000000000000000000000000000000000000000000000000000000000000000000000000000000000000002D0000002D0000000000000000F500F500DC00000000DC0000F50000000000000000F500F50000F500F5000000000000002D0000002D002D00000000000000000000000000000000
310
00000000000000000000000000000000002D00002D0000000000000000000000000000F50000F500DC00000000DC00F50000000000000000F50000F500F500F5000000000000002D00002D00002D00000000000000000000000000000000000000000000000000000000000000000000000000000000000000000000000000
310
0000000000000000000000000000000000000000000000000000000000000000000000000000000000000000000000000000000000000000002D0000002D0000000000000000F500F500DC00000000DC0000F50000000000000000F500F50000F500F5000000000000002D0000002D002D0000000000000000000000000000
310
000000000000000000000000000000000000002D00002D0000000000000000000000000000F50000F500DC00000000DC00F50000000000000000F50000F500F500F5000000000000002D00002D00002D0000000000000000000000000000000000000000000000000000000000000000000000000000000000000000000000
310
00000000000000000000000000000000000000000000000000000000000000000000000000000000000000000000000000000000000000000000002D0000002D0000000000000000F500F500DC00000000DC0000F50000000000000000F500F50000F500F5000000000000002D0000002D002D000000000000000000000000
310
0000000000000000000000000000000000000000002D00002D0000000000000000000000000000F50000F500DC00000000DC00F50000000000000000F50000F500F500F5000000000000002D00002D00002D000000000000000000000000000000000000000000000000000000000000000000000000000000000000000000
310
000000000000000000000000000000000000000000000000000000000000000000000000000000000000000000000000000000000000000000000000002D0000002D0000000000000000F500F500DC00000000DC0000F50000000000000000F500F50000F500F5000000000000002D0000002D002D00000000000000000000
310
00000000000000000000000000000000000000000000002D00002D0000000000000000000000000000F50000F500DC00000000DC00F50000000000000000F50000F500F500F5000000000000002D00002D00002D00000000000000000000000000000000000000000000000000000000000000000000000000000000000000
310
0000000000000000000000000000000000000000000000000000000000000000000000000000000000000000000000000000000000000000000000000000002D0000002D0000000000000000F500F500DC00000000DC0000F50000000000000000F500F50000F500F5000000000000002D0000002D002D0000000000000000
310
000000000000000000000000000000000000000000000000002D00002D0000000000000000000000000000F50000F500DC00000000DC00F50000000000000000F50000F500F500F5000000000000002D00002D00002D0000000000000000000000000000000000000000000000000000000000000000000000000000000000
310
00000000000000000000000000000000000000000000000000000000000000000000000000000000000000000000000000000000000000000000000000000000002D0000002D0000000000000000F500F500DC00000000DC0000F50000000000000000F500F50000F500F5000000000000002D0000002D002D000000000000
310
0000000000000000000000000000000000000000000000000000002D00002D0000000000000000000000000000F50000F500DC00000000DC00F50000000000000000F50000F500F500F5000000000000002D00002D00002D000000000000000000000000000000000000000000000000000000000000000000000000000000
310
000000000000000000000000000000000000000000000000000000000000000000000000000000000000000000000000000000000000000000000000000000000000002D0000002D0000000000000000F500F500DC00000000DC0000F50000000000000000F500F50000F500F5000000000000002D0000002D002D00000000
310
00000000000000000000000000000000000000000000000000000000002D00002D0000000000000000000000000000F50000F500DC00000000DC00F50000000000000000F50000F500F500F5000000000000002D00002D00002D00000000000000000000000000000000000000000000000000000000000000000000000000
310
0000000000000000000000000000000000000000000000000000000000000000000000000000000000000000000000000000000000000000000000000000000000000000002D0000002D0000000000000000F500F500DC00000000DC0000F50000000000000000F500F50000F500F5000000000000002D0000002D002D0000
310
000000000000000000000000000000000000000000000000000000000000002D00002D0000000000000000000000000000F50000F500DC00000000DC00F50000000000000000F50000F500F500F5000000000000002D00002D00002D0000000000000000000000000000000000000000000000000000000000000000000000
310
00000000000000000000000000000000000000000000000000000000000000000000000000000000000000000000000000000000000000000000000000000000000000000000002D0000002D0000000000000000F500F500DC00000000DC0000F50000000000000000F500F50000F500F5000000000000002D0000002D002D
310
0000000000000000000000000000000000000000000000000000000000000000002D00002D0000000000000000000000000000F50000F500DC00000000DC00F50000000000000000F50000F500F500F5000000000000002D00002D00002D000000000000000000000000000000000000000000000000000000000000000000
310
000000000000000000000000000000000000000000000000000000000000000000000000000000000000000000000000000000000000000000000000000000000000000000000000002D0000002D0000000000000000F500F500DC00000000DC0000F50000000000000000F500F50000F500F5000000000000002D0000002D
310
002D0000000000000000000000000000000000000000000000000000000000000000002D00002D0000000000000000000000000000F50000F500DC00000000DC00F50000000000000000F50000F500F500F5000000000000002D00002D00002D00000000000000000000000000000000000000000000000000000000000000
310
0000000000000000000000000000000000000000000000000000000000000000000000000000000000000000000000000000000000000000000000000000000000000000000000000000002D0000002D0000000000000000F500F500DC00000000DC0000F50000000000000000F500F50000F500F5000000000000002D0000
310
002D002D0000000000000000000000000000000000000000000000000000000000000000002D00002D0000000000000000000000000000F50000F500DC00000000DC00F50000000000000000F50000F500F500F5000000000000002D00002D00002D0000000000000000000000000000000000000000000000000000000000
310
00000000000000000000000000000000000000000000000000000000000000000000000000000000000000000000000000000000000000000000000000000000000000000000000000000000002D0000002D0000000000000000F500F500DC00000000DC0000F50000000000000000F500F50000F500F5000000000000002D
310
0000002D002D0000000000000000000000000000000000000000000000000000000000000000002D00002D0000000000000000000000000000F50000F500DC00000000DC00F50000000000000000F50000F500F500F5000000000000002D00002D00002D000000000000000000000000000000000000000000000000000000
310
000000000000000000000000000000000000000000000000000000000000000000000000000000000000000000000000000000000000000000000000000000000000000000000000000000000000002D0000002D0000000000000000F500F500DC00000000DC0000F50000000000000000F500F50000F500F5000000000000
310
002D0000002D002D0000000000000000000000000000000000000000000000000000000000000000002D00002D0000000000000000000000000000F50000F500DC00000000DC00F50000000000000000F50000F500F500F5000000000000002D00002D00002D00000000000000000000000000000000000000000000000000
310
0000000000000000000000000000000000000000000000000000000000000000000000000000000000000000000000000000000000000000000000000000000000000000000000000000000000000000002D0000002D0000000000000000F500F500DC00000000DC0000F50000000000000000F500F50000F500F500000000
310
0000002D0000002D002D0000000000000000000000000000000000000000000000000000000000000000002D00002D0000000000000000000000000000F50000F500DC00000000DC00F50000000000000000F50000F500F500F5000000000000002D00002D00002D0000000000000000000000000000000000000000000000
310
00000000000000000000000000000000000000000000000000000000000000000000000000000000000000000000000000000000000000000000000000000000000000000000000000000000000000000000002D0000002D0000000000000000F500F500DC00000000DC0000F50000000000000000F500F50000F500F50000
310
00000000002D0000002D002D0000000000000000000000000000000000000000000000000000000000000000002D00002D0000000000000000000000000000F50000F500DC00000000DC00F50000000000000000F50000F500F500F5000000000000002D00002D00002D000000000000000000000000000000000000000000
310
000000000000000000000000000000000000000000000000000000000000000000000000000000000000000000000000000000000000000000000000000000000000000000000000000000000000000000000000002D0000002D0000000000000000F500F500DC00000000DC0000F50000000000000000F500F50000F500F5
310
000000000000002D0000002D002D0000000000000000000000000000000000000000000000000000000000000000002D00002D0000000000000000000000000000F50000F500DC00000000DC00F50000000000000000F50000F500F500F5000000000000002D00002D00002D00000000000000000000000000000000000000
310
0000000000000000000000000000000000000000000000000000000000000000000000000000000000000000000000000000000000000000000000000000000000000000000000000000000000000000000000000000002D0000002D0000000000000000F500F500DC00000000DC0000F50000000000000000F500F50000F5
310
00F5000000000000002D0000002D002D0000000000000000000000000000000000000000000000000000000000000000002D00002D0000000000000000000000000000F50000F500DC00000000DC00F50000000000000000F50000F500F500F5000000000000002D00002D00002D0000000000000000000000000000000000
310
00000000000000000000000000000000000000000000000000000000000000000000000000000000000000000000000000000000000000000000000000000000000000000000000000000000000000000000000000000000002D0000002D0000000000000000F500F500DC00000000DC0000F50000000000000000F500F500
310
00F500F5000000000000002D0000002D002D0000000000000000000000000000000000000000000000000000000000000000002D00002D0000000000000000000000000000F50000F500DC00000000DC00F50000000000000000F50000F500F500F5000000000000002D00002D00002D000000000000000000000000000000
310
00000000000000000000000000000000000000000000000000000000000000000000000000000000000000000000000000000000000000000000000000000000000000000000000000000000000000000000000000000000002D2D2D00002D2D0000000000000000F500F500DC00000000DC0000F50000000000000000F500
310
F50000F500F50000000000002D2D002D2D2D2D2D00000000000000000000000000000000000000000000000000000000000000002D2D002D2D0000000000000000000000000000F50000F500DC00000000DC00F50000000000000000F50000F500F500F50000000000002D2D002D2D002D2D00000000000000000000000000
310
000000000000000000000000000000000000000000000000000000000000000000000000000000000000000000000000000000000000000000000000000000000000000000000000000000000000000000000000000000000000002D2D2D00002D2D00BEBEBEBEBEBEBEF5BEF5BEDCBEBE00BEDCBEBEF5BEBEBEBEBEBEBEBE
310
F5BEF5BEBEF5BEF5BEBEBEBEBEBE2D2D002D2D2D2D2D00000000000000000000000000000000000000000000000000000000000000002D2D002D2D000000000000BEBEBEBEBEBEBEBEF5BEBEF5BEDC00BEBEBEDCBEF5BEBEBEBEBEBE00BEF5BEBEF5BEF5BEF5BEBEBEBEBE002D2D002D2D002D2D0000000000000000000000
310
0000000000000000000000000000000000000000000000000000000000000000000000000000000000000000000000000000000000000000000000000000000000000000000000000000000000000000000000000000000000000000002D2D2D00002D2D0000000000000000F5000000F500000000F5000000000000000000
310
000000000000000000F50000000000002D2D002D2D2D2D2D00000000000000000000000000000000000000000000000000000000000000002D2D002D2D0000000000000000000000000000F500000000F500000000F50000000000000000000000000000000000F50000000000002D2D002D2D002D2D000000000000000000
310
000000000000000000000000000000000000000000000000000000000000000000000000000000000000000000000000000000000000000000000000000000000000000000000000000000000000000000000000000000000000000000000000002D0000002D0000000000000000F5000000F500000000F500000000000000
310
0000000000000000000000F50000000000002D2D002D2D2D2D2D00000000000000000000000000000000000000000000000000000000000000002D2D002D2D0000000000000000000000000000F500000000F500000000F50000000000000000000000000000000000F50000000000002D2D002D2D002D2D00000000000000
310
0000000000000000000000000000000000000000000000000000000000000000000000000000000000000000000000000000000000000000000000000000000000000000000000000000000000000000000000000000000000000000000000000000002D0000002D0000000000000000F5000000F500000000F50000000000
310
00000000000000000000000000F5000000000000002D0000002D002D0000000000000000000000000000000000000000000000000000000000000000002D00002D0000000000000000000000000000F500000000F500000000F50000000000000000000000000000000000F5000000000000002D00002D00002D0000000000
310
00000000000000000000000000000000000000000000000000000000000000000000000000000000000000000000000000000000000000000000000000000000000000000000000000000000000000000000000000000000000000000000000000000000002D0000002D0000000000000000F5000000F500000000F5000000
310
000000000000000000000000000000F5000000000000002D0000002D002D0000000000000000000000000000000000000000000000000000000000000000002D00002D0000000000000000000000000000F500000000F500000000F50000000000000000000000000000000000F5000000000000002D00002D00002D000000
310
000000000000000000000000000000000000000000000000000000000000000000000000000000000000000000000000000000000000000000000000000000000000000000000000000000000000000000000000000000000000000000000000000000000000002D0000002D0000000000000000F5000000F500000000F500
310
0000000000000000000000000000000000F5000000000000002D0000002D002D0000000000000000000000000000000000000000000000000000000000000000002D00002D0000000000000000000000000000F500000000F500000000F50000000000000000000000000000000000F5000000000000002D00002D00002D00
310
0000000000000000000000000000000000000000000000000000000000000000000000000000000000000000000000000000000000000000000000000000000000000000000000000000000000000000000000000000000000000000000000000000000000000000002D0000002D0000000000000000F5000000F500000000
310
F5000000000000000000000000000000000000F5000000000000002D0000002D002D0000000000000000000000000000000000000000000000000000000000000000002D00002D0000000000000000000000000000F500000000F500000000F50000000000000000000000000000000000F5000000000000002D00002D0000
310
2D000000000000000000000000000000000000000000000000000000000000000000000000000000000000000000000000000000000000000000000000000000000000000000000000000000000000000000000000000000000000000000000000000000000000000000002D0000002D0000000000000000F5000000F50000
310
0000F5000000000000000000000000000000000000F5000000000000002D0000002D002D0000000000000000000000000000000000000000000000000000000000000000002D00002D0000000000000000000000000000F500000000F500000000F50000000000000000000000000000000000F5000000000000002D00002D
310
00002D000000000000000000000000000000000000000000000000000000000000000000000000000000000000000000000000000000000000000000000000000000000000000000000000000000000000000000000000000000000000000000000000000000000000000000002D0000002D0000000000000000F5000000F5
310
00000000F5000000000000000000000000000000000000F5000000000000002D0000002D002D0000000000000000000000000000000000000000000000000000000000000000002D00002D0000000000000000000000000000F500000000F500000000F50000000000000000000000000000000000F5000000000000002D00
310
002D00002D000000000000000000000000000000000000000000000000000000000000000000000000000000000000000000000000000000000000000000000000000000000000000000000000000000000000000000000000000000000000000000000000000000000000000000002D0000002D0000000000000000F50000
310
00F500000000F5000000000000000000000000000000000000F5000000000000002D0000002D002D0000000000000000000000000000000000000000000000000000000000000000002D00002D0000000000000000000000000000F500000000F500000000F50000000000000000000000000000000000F500000000000000
310
2D00002D00002D000000000000000000000000000000000000000000000000000000000000000000000000000000000000000000000000000000000000000000000000000000000000000000000000000000000000000000000000000000000000000000000000000000000000000000002D0000002D0000000000000000F5
310
000000F500000000F5000000000000000000000000000000000000F5000000000000002D0000002D002D0000000000000000000000000000000000000000000000000000000000000000002D00002D0000000000000000000000000000F500000000F500000000F50000000000000000000000000000000000F50000000000
310
00002D00002D00002D000000000000000000000000000000000000000000000000000000000000000000000000000000000000000000000000000000000000000000000000000000000000000000000000000000000000000000000000000000000000000000000000000000000000000000002D0000002D00000000000000
310
00F5000000F500000000F5000000000000000000000000000000000000F5000000000000002D0000002D002D0000000000000000000000000000000000000000000000000000000000000000002D00002D0000000000000000000000000000F500000000F500000000F50000000000000000000000000000000000F5000000
310
000000002D00002D00002D000000000000000000000000000000000000000000000000000000000000000000000000000000000000000000000000000000000000000000000000000000000000000000000000000000000000000000000000000000000000000000000000000000000000000000002D0000002D0000000000
310
000000F5000000F500000000F5000000000000000000000000000000000000F5000000000000002D0000002D002D0000000000000000000000000000000000000000000000000000000000000000002D00002D0000000000000000000000000000F500000000F500000000F50000000000000000000000000000000000F500
310
0000000000002D00002D00002D000000000000000000000000000000000000000000000000000000000000000000000000000000000000000000000000000000000000000000000000000000000000000000000000000000000000000000000000000000000000000000000000000000000000000000002D0000002D000000
310
0000000000F5000000F500000000F5000000000000000000000000000000000000F5000000000000002D0000002D002D0000000000000000000000000000000000000000000000000000000000000000002D00002D0000000000000000000000000000F500000000F500000000F50000000000000000000000000000000000
310
F5000000000000002D00002D00002D000000000000000000000000000000000000000000000000000000000000000000000000000000000000000000000000000000000000000000000000000000000000000000000000000000000000000000000000000000000000000000000000000000000000000000002D0000002D00
310
00000000000000F5000000F500000000F5000000000000000000000000000000000000F5000000000000002D0000002D002D0000000000000000000000000000000000000000000000000000000000000000002D00002D0000000000000000000000000000F500000000F500000000F5000000000000000000000000000000
310
0000F5000000000000002D00002D00002D000000000000000000000000000000000000000000000000000000000000000000000000000000000000000000000000000000000000000000000000000000000000000000000000000000000000000000000000000000000000000000000000000000000000000000002D000000
310
2D0000000000000000F5000000F500000000F5000000000000000000000000000000000000F5000000000000002D0000002D002D0000000000000000000000000000000000000000000000000000000000000000002D00002D0000000000000000000000000000F500000000F500000000F500000000000000000000000000
310
00000000F5000000000000002D00002D00002D000000000000000000000000000000000000000000000000000000000000000000000000000000000000000000000000000000000000000000000000000000000000000000000000000000000000000000000000000000000000000000000000000000000000000000002D00
310
00002D0000000000000000F5000000F500000000F5000000000000000000000000000000000000F5000000000000002D0000002D002D0000000000000000000000000000000000000000000000000000000000000000002D00002D0000000000000000000000000000F500000000F500000000F50000000000000000000000
310
000000000000F5000000000000002D00002D00002D00000000000000000000000000000000000000000000000000000000000000000000000000000000000000000000000000000000000000000000000000000000000000000000000000000000000000000000000000000000000000000000000000000000000000000000
310
2D0000002D0000000000000000F5000000F500000000F5000000000000000000000000000000000000F5000000000000002D0000002D002D0000000000000000000000000000000000000000000000000000000000000000002D00002D0000000000000000000000000000F500000000F500000000F5000000000000000000
310
0000000000000000F5000000000000002D00002D00002D0000000000000000000000000000000000000000000000000000000000000000000000000000000000000000000000000000000000000000000000000000000000000000000000000000000000000000000000000000000000000000000000000000000000000000
310
00002D0000002D0000000000000000F5000000F500000000F5000000000000000000000000000000000000F5000000000000002D0000002D002D0000000000000000000000000000000000000000000000000000000000000000002D00002D0000000000000000000000000000F500000000F500000000F500000000000000
310
00000000000000000000F5000000000000002D00002D00002D000000000000000000000000000000000000000000000000000000000000000000000000000000000000000000000000000000000000000000000000000000000000000000000000000000000000000000000000000000000000000000000000000000000000
310
000000002D0000002D0000000000000000F5000000F500000000F5000000000000000000000000000000000000F5000000000000002D0000002D002D0000000000000000000000000000000000000000000000000000000000000000002D00002D0000000000000000000000000000F500000000F500000000F50000000000
310
000000000000000000000000F5000000000000002D00002D00002D00000000000000000000000000000000000000000000000000000000000000000000000000000000000000000000000000000000000000000000000000000000000000000000000000000000000000000000000000000000000000000000000000000000
310
0000000000002D0000002D0000000000000000F5000000F500000000F5000000000000000000000000000000000000F5000000000000002D0000002D002D0000000000000000000000000000000000000000000000000000000000000000002D00002D0000000000000000000000000000F500000000F500000000F5000000
310
0000000000000000000000000000F5000000000000002D00002D00002D0000000000000000000000000000000000000000000000000000000000000000000000000000000000000000000000000000000000000000000000000000000000000000000000000000000000000000000000000000000000000000000000000000
310
00000000000000002D0000002D0000000000000000F5000000F500000000F5000000000000000000000000000000000000F5000000000000002D0000002D002D0000000000000000000000000000000000000000000000000000000000000000002D00002D0000000000000000000000000000F500000000F500000000F500
310
00000000000000000000000000000000F5000000000000002D00002D00002D000000000000000000000000000000000000000000000000000000000000000000000000000000000000000000000000000000000000000000000000000000000000000000000000000000000000000000000000000000000000000000000000
310
000000000000000000002D0000002D0000000000000000F5000000F500000000F5000000000000000000000000000000000000F5000000000000002D0000002D002D0000000000000000000000000000000000000000000000000000000000000000002D00002D0000000000000000000000000000F500000000F500000000
310
F50000000000000000000000000000000000F5000000000000002D00002D00002D00000000000000000000000000000000000000000000000000000000000000000000000000000000000000000000000000000000000000000000000000000000000000000000000000000000000000000000000000000000000000000000
310
0000000000000000000000002D0000002D0000000000000000F5000000F500000000F5000000000000000000000000000000000000F5000000000000002D0000002D002D0000000000000000000000000000000000000000000000000000000000000000002D00002D0000000000000000000000000000F500000000F50000
310
0000F50000000000000000000000000000000000F5000000000000002D00002D00002D0000000000000000000000000000000000000000000000000000000000000000000000000000000000000000000000000000000000000000000000000000000000000000000000000000000000000000000000000000000000000000
310
00000000000000000000000000002D0000002D0000000000000000F5000000F500000000F5000000000000000000000000000000000000F5000000000000002D0000002D002D0000000000000000000000000000000000000000000000000000000000000000002D00002D0000000000000000000000000000F500000000F5
310
00000000F50000000000000000000000000000000000F5000000000000002D00002D00002D000000000000000000000000000000000000000000000000000000000000000000000000000000000000000000000000000000000000000000000000000000000000000000000000000000000000000000000000000000000000
310
000000000000000000000000000000002D0000002D0000000000000000F5000000F500000000F5000000000000000000000000000000000000F5000000000000002D0000002D002D0000000000000000000000000000000000000000000000000000000000000000002D00002D0000000000000000000000000000F5000000
310
00F500000000F50000000000000000000000000000000000F5000000000000002D00002D00002D00000000000000000000000000000000000000000000000000000000000000000000000000000000000000000000000000000000000000000000000000000000000000000000000000000000000000000000000000000000
310
0000000000000000000000000000000000002D0000002D0000000000000000F5000000F5F5F50000F5000000000000000000000000000000000000F5000000000000002D2D00002D002D0000000000000000000000000000000000000000000000000000000000000000002D00002D0000000000000000000000000000F500
310
000000F500000000F50000000000000000000000000000000000F5000000000000002D00002D00002D0000000000000000000000000000000000000000000000000000000000000000000000000000000000000000000000000000000000000000000000000000000000000000000000000000000000000000000000000000
310
00000000000000000000000000000000000000002D0000002D0000000000000000F500000000F5F5F5F5F5F5F5F5F5F5F5F5F5F5F5F5F5F5F5F5F5F5F52D2D2D2D2D2D2D2D2D0000002D002D0000000000000000000000000000000000000000000000000000000000000000002D00002D0000000000000000000000000000
310
F500000000F500000000F50000000000000000000000000000000000F5000000000000002D00002D00002D000000000000000000000000000000000000000000000000000000000000000000000000000000000000000000000000000000000000000000000000000000000000000000000000000000000000000000000000
310
000000000000000000000000000000000000000000002D0000002D2D2D2D2D2D2D2D2D2DF5F5F5F5F5F5C3C3F5F5F5F5F5F5F5F5F5F5F5F5F5F5F5F52D2D2D2D2D2D2D2D2D2D2D2D2D2D2D2D002D0000000000000000000000000000000000000000000000000000000000000000002D00002D000000000000000000000000
310
0000F500000000F500000000F50000000000000000000000000000000000F5000000000000002D00002D00002D00000000000000000000000000000000000000000000000000000000000000000000000000000000000000000000000000000000000000000000000000000000000000000000000000000000000000000000
310
00000000000000000000000000000000000000000000002D2D000000000000000000000000F5C3C3C3C3C3C3C3C3C3C300C3C3C3C3C3C3C3C3C3C3C3C3C3F5F5392D000000000000000000000000002D0000000000000000000000000000000000000000000000000000000000000000002D00002D00000000000000000000
310
00000000F500000000F500000000F50000000000000000000000000000000000F5000000000000002D00002D00002D0000000000000000000000000000000000000000000000000000000000000000000000000000000000000000000000000000000000000000000000000000000000000000000000000000000000000000
310
00000000000000000000000000000000000000000000000000002D2D2D2D2D2D2D2D2D2D2D2D2D2DF5F5F5F5F5F5F5F5F5F5F5F5F5F5F5F5F5F5F5F5F5F5F5C3C3F5392D000000000000000000000000002D0000000000000000000000000000000000000000000000000000000000000000002D00002D0000000000000000
310
000000000000F500000000F500000000F50000000000000000000000000000000000F5000000000000002D00002D00002D000000000000000000000000000000000000000000000000000000000000000000000000000000000000000000000000000000000000000000000000000000000000000000000000000000000000
310
00000000000000000000000000000000000000000000000000000000000000000000000000000000000000F5F5F5F5F5F5F5F5F5F5F5F5F5F5F5F5F5F5F5F500F500C3F539F52D0000000000000000000000002D0000000000000000000000000000000000000000000000000000000000000000002D00002D000000000000
310
0000000000000000F500000000F500000000F50000000000000000000000000000000000F5000000000000002D00002D00002D00000000000000000000000000000000000000000000000000000000000000000000000000000000000000000000000000000000000000000000000000000000000000000000000000000000
310
00000000000000000000000000000000000000000000000000000000000000000000000000000000000000000000000000000000000000000000002D000000000000F5C300F539F5002D00000000000000000000002D2D00000000000000000000000000000000000000000000000000000000000000002D00002D00000000
310
00000000000000000000F500000000F500000000F50000000000000000000000000000000000F5000000000000002D00002D00002D0000000000000000000000000000000000000000000000000000000000000000000000000000000000000000000000000000000000000000000000000000000000000000000000000000
310
000000000000000000000000000000000000000000000000000000000000000000000000000000000000000000000000000000000000000000000000002D000000000000F52DF5F5F52D2D2D2D2D2D2D2D2D2D2D2D2D2D2D0000000000000000000000000000000000000000000000000000000000000000002D00002D0000
310
000000000000000000000000F500000000F500000000F50000000000000000000000000000000000F5000000000000002D00002D00002D000000000000000000000000000000000000000000000000000000000000000000000000000000000000000000000000000000000000000000000000000000000000000000000000
310
00000000000000000000000000000000000000000000000000000000000000000000000000000000000000000000000000000000000000000000000000002D00000000000000002D000000000000002D000000000000000000000000000000000000000000000000000000000000000000000000000000000000002D00002D
310
0000000000000000000000000000F500000000F500000000F50000000000000000000000000000000000F5000000000000002D00002D00002D00000000000000000000000000000000000000000000000000000000000000000000000000000000000000000000000000000000000000000000000000000000000000000000
310
000000000000000000000000000000000000000000000000000000000000000000000000000000000000000000000000000000000000000000000000000000002D000000000000002D0000000000000000002D0000000000000000000000000000000000000000000000000000000000000000000000000000000000002D00
310
002D0000000000000000000000000000F500000000F500000000F50000000000000000000000000000000000F5000000000000002D00002D00002D0000000000000000000000000000000000000000000000000000000000000000000000000000000000000000000000000000000000000000000000000000000000000000
310
000000000000000000000000000000000000000000000000000000000000000000000000000000000000000000000000000000000000002D2D2D2D2D2D2D2D2D2D2D00000000000000002D000000000000000000002D0000000000000000000000000000000000000000000000000000000000000000000000000000000000
310
2D00002D0000000000000000000000000000F500000000F500000000F50000000000000000000000000000000000F5000000000000002D00002D00002D000000000000000000000000000000000000000000000000000000000000000000000000000000000000000000000000000000000000000000000000000000000000
310
0000000000000000000000000000000000000000000000000000000000000000000000000000000000000000000000000000000000000000002D2D2D2D2D2D2D2D000000000000000000002D0000000000000000000000002D0000000000000000000000000000000000000000000000000000000000000000000000000000
310
00002D00002D0000000000000000000000000000F500000000F5F5000000F50000000000000000000000000000000000F5000000000000002D00002D00002D00000000000000000000000000000000000000000000000000000000000000000000000000000000000000000000000000000000000000000000000000000000
310
00000000000000000000000000000000000000000000000000000000000000000000000000000000000000000000000000000000000000000000000000000000002D2D002D2D2D2D2D2D2D2D2D2D000000000000000000000000002D2D2D2D2D2D2D2D2D2D2D00000000000000000000000000000000000000000000000000
310
000000002D00002D0000000000000000000000000000F500000000F5C3F5F500F50000000000000000000000000000000000F5000000000000002D00002D00002D0000000000000000000000000000000000000000000000000000000000000000000000000000000000000000000000000000000000000000000000000000
310
000000000000000000000000000000000000000000000000000000000000000000000000000000000000000000000000000000000000000000000000000000000000000000002D2D2D2D2D2D2D2D2D0000000000000000000000000000002D2D2D2D2D2D2D2D2D2D0000000000000000000000000000000000000000000000
310
0000000000002D00002D2D00000000000000000000000000F50000000000F5C3F5F5F5F5F5F5F5F5F5F5F5F5F5F5F5F5F5F5F5F52D2D2D2D2D2D2D2D2D00002D2D002D000000000000000000000000000000000000000000000000000000000000000000000000000000000000000000000000000000000000000000000000
310
0000000000000000000000000000000000000000000000000000000000000000000000000000000000000000000000000000000000000000000000000000000000000000000000002D2D2D2D2D2D2D2D0000000000000000000000000000000000000000000000000000000000000000000000000000000000000000000000
310
00000000000000002D00002D2D2D2D2D2D2D2D2D2D2D2D2D2D2D2DF5F5F5F5F5F5C3C3C3F5F5F5F5F5F5F5F5F5F5F5F5F5F5F52D2D2D2D2D2D2D2D2D2D2D2D2D2D2D00002D00000000000000000000000000000000000000000000000000000000000000000000000000000000000000000000000000000000000000000000
310
00000000000000000000000000000000000000000000000000000000000000000000000000000000000000000000000000000000000000000000000000000000000000000000000000000000000000000000000000000000000000000000000000000000000000000000000000000000000000000000000000000000000000
310
000000000000000000002D0000000000000000000000000000000000F5C3C3C3C3C3C3C3C3C3C300F5F5F5F5F5F5F5F5F5F5F5F5F5C3F5392D2D0000000000000000000000002D0000000000000000000000000000000000000000000000000000000000000000000000000000000000000000000000000000000000000000
310
00000000000000000000000000000000000000000000000000000000000000000000000000000000000000000000000000000000000000000000000000000000000000000000000000000000000000000000000000000000000000000000000000000000000000000000000000000000000000000000000000000000000000
310
0000000000000000000000002D2D2D2D2D2D2D2D2D2D2D2D2D2D2D2D2D2D2DF5F5F5F5F5F5F5F5F5F5F5F5F5F5F5F5F52DF5F5F50000F5C3F50FF52D0000000000000000000000002D000000000000000000000000000000000000000000000000000000000000000000000000000000000000000000000000000000000000
310
00000000000000000000000000000000000000000000000000000000000000000000000000000000000000000000000000000000000000000000000000000000000000000000000000000000000000000000000000000000000000000000000000000000000000000000000000000000000000000000000000000000000000
310
0000000000000000000000000000000000000000000000000000000000000000000000F5F5F5F5F5F5F5F5F5F5000000002D000000000000F5C3F563F5002D00000000000000000000002D00000000000000000000000000000000000000000000000000000000000000000000000000000000000000000000000000000000
310
00000000000000000000000000000000000000000000000000000000000000000000000000000000000000000000000000000000000000000000000000000000000000000000000000000000000000000000000000000000000000000000000000000000000000000000000000000000000000000000000000000000000000
310
00000000000000000000000000000000000000000000000000000000000000000000000000000000000000000000000000002D00000000000000F52DF5F52D2D2D2D2D2D2D2D2D2D2D2D2D2D2D0000000000000000000000000000000000000000000000000000000000000000000000000000000000000000000000000000
310
00000000000000000000000000000000000000000000000000000000000000000000000000000000000000000000F5F5F5F5F5F5F5F5F5F5F5F5000000000000000000000000000000000000000000000000000000000000000000000000000000000000000000000000000000000000000000000000000000000000000000
310
000000000000000000000000000000000000000000000000000000000000000000000000000000000000000000000000000000002D000000000000002D2D0000000000002D00000000000000000000000000000000000000000000000000000000000000000000000000000000000000000000000000000000000000000000
310
000000000000000000000000000000000000000000000000000000000000000000000000000000000000000000000000F5F5F5F5F5F5F5F5F5F5F5F500000000000000000000000000000000000000000000000000000000000000000000000000000000000000000000000000000000000000000000000000000000000000
310
00000000000000000000000000000000000000000000000000000000000000000000000000000000000000000000000000000000002D00000000000000002D00000000000000002D2D000000000000000000000000000000000000000000000000000000000000000000000000000000000000000000000000000000000000
310
00000000000000000000000000000000000000000000000000000000000000000000000000000000000000000000000000000000000000000000000000000000000000000000000000000000000000000000000000000000000000000000000000000000000000000000000000000000000000000000000000000000000000
310
00000000000000000000000000000000000000000000000000000000000000000000000000000000000000002D2D2D2D2D2D2D2D2D2D2D00000000000000002D00000000000000000000002D000000000000000000000000000000000000000000000000000000000000000000000000000000000000000000000000000000
310
00000000000000000000000000000000000000000000000000000000000000000000000000000000000000000000000000000000000000000000000000000000000000000000000000000000000000000000000000000000000000000000000000000000000000000000000000000000000000000000000000000000000000
310
00000000000000000000000000000000000000000000000000000000000000000000000000000000000000000000002D00002D2D2D2D2D000000000000000000002D0000000000000000000000002D000000000000000000000000000000000000000000000000000000000000000000000000000000000000000000000000
310
00000000000000000000000000000000000000000000000000000000000000000000000000000000000000000000000000000000000000000000000000000000000000000000000000000000000000000000000000000000000000000000000000000000000000000000000000000000000000000000000000000000000000
310
0000000000000000000000000000000000000000000000000000000000000000000000000000000000000000000000002D2D2D2D2D2D2D2D2D0000000000000000002D00000000000000000000000000002D2D2D2D2D2D2D2D2D2D2D0000000000000000000000000000000000000000000000000000000000000000000000
310
00000000000000000000000000000000000000000000000000000000000000000000000000000000000000000000000000000000000000000000000000000000000000000000000000000000000000000000000000000000000000000000000000000000000000000000000000000000000000000000000000000000000000
310
0000000000000000000000000000000000000000000000F5F5F5F5F5F5F5F5F5F5F5F5000000000000000000000000000000000000000000000000002D2D2D2D2D2D2D2D2D00000000000000000000000000002D2D2D2D2D2D2D2D2D2D2D000000000000000000000000000000000000000000000000000000000000000000
310
00000000000000000000000000000000000000000000000000000000000000000000000000000000000000000000000000000000000000000000000000000000000000000000000000000000000000000000000000000000000000000000000000000000000000000000000000000000000000000000000000000000000000
310
00000000000000000000000000000000000000000000000000F5F5F5F5F5F5F5F5F5F5F5F5000000000000000000000000000000000000000000000000002D2D2D2D2D2D2D2D000000000000000000000000000000002D002D2D002D2D2D000000000000000000000000000000000000000000000000000000000000000000
310
00000000000000000000000000000000000000000000000000000000000000000000000000000000000000000000000000000000000000000000000000000000000000000000000000000000000000000000000000000000000000000000000000000000000000000000000000000000000000000000000000000000000000
310
000000000000000000000000000000000000000000000000000000F5F5F5F5F5F5F5F5F5F5F5F5000000000000000000000000000000000000000000000000002D002D2D002D2D0000000000000000000000000000000000000000000000000000000000000000000000000000000000000000000000000000000000000000
310
00000000000000000000000000000000000000000000000000000000000000000000000000000000000000000000000000000000000000000000000000000000000000000000000000000000000000000000000000000000000000000000000000000000000000000000000000000000000000000000000000000000000000
310
00000000000000000000000000000000000000000000000000000000000000000000000000000000000000000000000000000000000000000000000000000000000000000000000000000000000000000000000000000000000000000000000000000000000000000000000000000000000000000000000000000000000000
310
00000000000000000000000000000000000000000000000000000000000000000000000000000000000000000000000000000000000000000000000000000000000000000000000000000000000000000000000000000000000000000000000000000000000000000000000000000000000000000000000000000000000000
310
00000000000000000000000000000000000000000000000000000000000000000000000000000000000000000000000000000000000000000000000000000000000000000000000000000000000000000000000000000000000000000000000000000000000000000000000000000000000000000000000000000000000000
310
00000000000000000000000000000000000000000000000000000000000000000000000000000000000000000000000000000000000000000000000000000000000000000000000000000000000000000000000000000000000000000000000000000000000000000000000000000000000000000000000000000000000000
310
00000000000000000000000000000000000000000000000000000000000000000000000000000000000000000000000000000000000000000000000000000000000000000000000000000000000000000000000000000000000000000000000000000000000000000000000000000000000000000000000000000000000000
310
00000000000000000000000000000000000000000000000000000000000000000000000000000000000000000000000000000000000000000000000000000000000000000000000000000000000000000000000000000000000000000000000000000000000000000000000000000000000000000000000000000000000000
310
00000000000000000000000000000000000000000000000000000000000000000000000000000000000000000000000000000000000000000000000000000000000000000000000000000000000000000000000000000000000000000000000000000000000000000000000000000000000000000000000000000000000000
310
00000000000000000000000000000000000000000000000000000000000000000000000000000000000000000000000000000000000000000000000000000000000000000000000000000000000000000000000000000000000000000000000000000000000000000000000000000000000000000000000000000000000000
310
00000000000000000000000000000000000000000000000000000000000000000000000000000000000000000000000000000000000000000000000000000000000000000000000000000000000000000000000000000000000000000000000000000000000000000000000000000000000000000000000000000000000000
310
00000000000000000000000000000000000000000000000000000000000000000000000000000000000000000000000000000000000000000000000000000000000000000000000000000000000000000000000000000000000000000000000000000000000000000000000000000000000000000000000000000000000000
310
00000000000000000000000000000000000000000000000000000000000000000000000000000000000000000000000000000000000000000000000000000000000000000000000000000000000000000000000000000000000000000000000000000000000000000000000000000000000000000000000000000000000000
310
00000000000000000000000000000000000000000000000000000000000000000000000000000000000000000000000000000000000000000000000000000000000000000000000000000000000000000000000000000000000000000000000000000000000000000000000000000000000000000000000000000000000000
310
00000000000000000000000000000000000000000000000000000000000000000000000000000000000000000000000000000000000000000000000000000000000000000000000000000000000000000000000000000000000000000000000000000000000000000000000000000000000000000000000000000000000000
310
00000000000000000000000000000000000000000000000000000000000000000000000000000000000000000000000000000000000000F5F5F5F5F5F5F5F5F5F5F5F5F5F5F5F5F5F5F5F5F5000000000000000000000000000000000000000000000000000000000000000000000000000000000000000000000000000000
310
00000000000000000000000000000000000000000000000000000000000000000000000000000000000000000000000000000000000000000000000000000000000000000000000000000000000000000000000000000000000000000000000000000000000000000000000000000000000000000000000000000000000000
310
000000000000000000000000000000000000000000000000000000000000000000000000000000000000000000000000000000000000000000F5F5F5F5F5F5F5F5F5F5F5F5F5F5F5F5F5F5F5F5F500000000000000000000000000000000000000000000000000000000000000000000000000000000000000000000000000
310
00000000000000000000000000000000000000000000000000000000000000000000000000000000000000000000000000000000000000000000000000000000000000000000000000000000000000000000000000000000000000000000000000000000000000000000000000000000000000000000000000000000000000
310
0000000000000000000000000000000000000000000000000000000000000000000000000000000000000000000000000000000000000000000000F5F5F5F5F5F5F5F5F5F5F5F5F5F5F5F5F5F5F5F5F50000000000000000000000000000000000000000000000000000000000000000000000000000000000000000000000
310
00000000000000000000000000000000000000000000000000000000000000000000000000000000000000000000000000000000000000000000000000000000000000000000000000000000000000000000000000000000000000000000000000000000000000000000000000000000000000000000000000000000000000
310
00000000000000000000000000000000000000000000000000000000000000000000000000000000000000000000000000000000000000000000000000F5F5F5F5F5F5F5F5F5F5F5F5F5F5F5F5F5F5F5F5F5000000000000000000000000000000000000000000000000000000000000000000000000000000000000000000
310
00000000000000000000000000000000000000000000000000000000000000000000000000000000000000000000000000000000000000000000000000000000000000000000000000000000000000000000000000000000000000000000000000000000000000000000000000000000000000000000000000000000000000
310
00000000000000000000000000000000000000000000000000000000000000000000000000000000000000000000000000000000000000000000000000000000000000000000000000000000000000000000000000000000000000000000000000000000000000000000000000000000000000000000000000000000000000
310
00000000000000000000000000000000000000000000000000000000000000000000000000000000000000000000000000000000000000000000000000000000000000000000000000000000000000000000000000000000000000000000000000000000000000000000000000000000000000000000000000000000000000
310
00000000000000000000000000000000000000000000000000000000000000000000000000000000000000000000000000000000000000000000000000000000000000000000000000000000000000000000000000000000000000000000000000000000000000000000000000000000000000000000000000000000000000
310
00000000000000000000000000000000000000000000000000000000000000000000000000000000000000000000000000000000000000000000000000000000000000000000000000000000000000000000000000000000000000000000000000000000000000000000000000000000000000000000000000000000000000
310
0000000000000000000000000000000000000000000000000000000000000000
  0
XRECORD
  5
2DBF6
102
{ACAD_REACTORS
330
2DB06
102
}
330
2DB06
100
AcDbXrecord
280
     1
102
MATERIAL
148
0.0
149
0.0
149
0.0
 93
        0
 94
      127
282
     0
 72
     0
 77
     0
171
     0
175
     0
179
     0
273
     0
  0
XRECORD
  5
2DB08
102
{ACAD_REACTORS
330
2DB06
102
}
330
2DB06
100
AcDbXrecord
280
     1
270
     1
271
     1
  0
XRECORD
  5
2DB07
102
{ACAD_REACTORS
330
2DB06
102
}
330
2DB06
100
AcDbXrecord
280
     1
270
     1
271
     1
  0
XRECORD
  5
2DB0B
102
{ACAD_REACTORS
330
2DB06
102
}
330
2DB06
100
AcDbXrecord
280
     1
270
     1
271
     1
  0
XRECORD
  5
2DB0A
102
{ACAD_REACTORS
330
2DB06
102
}
330
2DB06
100
AcDbXrecord
280
     1
270
     1
271
     1
  0
XRECORD
  5
2DB0C
102
{ACAD_REACTORS
330
2DB06
102
}
330
2DB06
100
AcDbXrecord
280
     1
270
     1
271
     1
  0
XRECORD
  5
2DB09
102
{ACAD_REACTORS
330
2DB06
102
}
330
2DB06
100
AcDbXrecord
280
     1
270
     1
271
     1
  0
XRECORD
  5
2DBF5
102
{ACAD_REACTORS
330
2DAFE
102
}
330
2DAFE
100
AcDbXrecord
280
     1
102
MATERIAL
148
0.0
149
0.0
149
0.0
 93
        0
 94
      127
282
     0
 72
     0
 77
     0
171
     0
175
     0
179
     0
273
     0
  0
XRECORD
  5
2DB00
102
{ACAD_REACTORS
330
2DAFE
102
}
330
2DAFE
100
AcDbXrecord
280
     1
270
     1
271
     1
  0
XRECORD
  5
2DAFF
102
{ACAD_REACTORS
330
2DAFE
102
}
330
2DAFE
100
AcDbXrecord
280
     1
270
     1
271
     1
  0
XRECORD
  5
2DB03
102
{ACAD_REACTORS
330
2DAFE
102
}
330
2DAFE
100
AcDbXrecord
280
     1
270
     1
271
     1
  0
XRECORD
  5
2DB02
102
{ACAD_REACTORS
330
2DAFE
102
}
330
2DAFE
100
AcDbXrecord
280
     1
270
     1
271
     1
  0
XRECORD
  5
2DB04
102
{ACAD_REACTORS
330
2DAFE
102
}
330
2DAFE
100
AcDbXrecord
280
     1
270
     1
271
     1
  0
XRECORD
  5
2DB01
102
{ACAD_REACTORS
330
2DAFE
102
}
330
2DAFE
100
AcDbXrecord
280
     1
270
     1
271
     1
  0
XRECORD
  5
2DBF7
102
{ACAD_REACTORS
330
2DB0E
102
}
330
2DB0E
100
AcDbXrecord
280
     1
102
MATERIAL
148
0.0
149
0.0
149
0.0
 93
        0
 94
      127
282
     0
 72
     0
 77
     0
171
     0
175
     0
179
     0
273
     0
  0
XRECORD
  5
2DB10
102
{ACAD_REACTORS
330
2DB0E
102
}
330
2DB0E
100
AcDbXrecord
280
     1
270
     1
271
     1
  0
XRECORD
  5
2DB0F
102
{ACAD_REACTORS
330
2DB0E
102
}
330
2DB0E
100
AcDbXrecord
280
     1
270
     1
271
     1
  0
XRECORD
  5
2DB13
102
{ACAD_REACTORS
330
2DB0E
102
}
330
2DB0E
100
AcDbXrecord
280
     1
270
     1
271
     1
  0
XRECORD
  5
2DB12
102
{ACAD_REACTORS
330
2DB0E
102
}
330
2DB0E
100
AcDbXrecord
280
     1
270
     1
271
     1
  0
XRECORD
  5
2DB14
102
{ACAD_REACTORS
330
2DB0E
102
}
330
2DB0E
100
AcDbXrecord
280
     1
270
     1
271
     1
  0
XRECORD
  5
2DB11
102
{ACAD_REACTORS
330
2DB0E
102
}
330
2DB0E
100
AcDbXrecord
280
     1
270
     1
271
     1
  0
CELLSTYLEMAP
  5
2DBEF
102
{ACAD_REACTORS
330
2DBEE
102
}
330
2DBEE
100
AcDbCellStyleMap
 90
        3
300
CELLSTYLE
  1
TABLEFORMAT_BEGIN
 90
        5
170
     1
 91
        0
 92
    32768
 62
   257
 93
        1
300
CONTENTFORMAT
  1
CONTENTFORMAT_BEGIN
 90
        0
 91
        0
 92
        4
 93
        0
300

 40
0.0
140
1.0
 94
        5
 62
     0
340
11
144
6.0
309
CONTENTFORMAT_END
171
     1
301
MARGIN
  1
CELLMARGIN_BEGIN
 40
1.5
 40
1.5
 40
1.5
 40
1.5
 40
0.18
 40
0.18
309
CELLMARGIN_END
 94
        6
 95
        1
302
GRIDFORMAT
  1
GRIDFORMAT_BEGIN
 90
        0
 91
        1
 62
     0
 92
       -2
340
0
 93
        0
 40
0.045
309
GRIDFORMAT_END
 95
        2
302
GRIDFORMAT
  1
GRIDFORMAT_BEGIN
 90
        0
 91
        1
 62
     0
 92
       -2
340
0
 93
        0
 40
0.045
309
GRIDFORMAT_END
 95
        4
302
GRIDFORMAT
  1
GRIDFORMAT_BEGIN
 90
        0
 91
        1
 62
     0
 92
       -2
340
0
 93
        0
 40
0.045
309
GRIDFORMAT_END
 95
        8
302
GRIDFORMAT
  1
GRIDFORMAT_BEGIN
 90
        0
 91
        1
 62
     0
 92
       -2
340
0
 93
        0
 40
0.045
309
GRIDFORMAT_END
 95
       16
302
GRIDFORMAT
  1
GRIDFORMAT_BEGIN
 90
        0
 91
        1
 62
     0
 92
       -2
340
0
 93
        0
 40
0.045
309
GRIDFORMAT_END
 95
       32
302
GRIDFORMAT
  1
GRIDFORMAT_BEGIN
 90
        0
 91
        1
 62
     0
 92
       -2
340
0
 93
        0
 40
0.045
309
GRIDFORMAT_END
309
TABLEFORMAT_END
  1
CELLSTYLE_BEGIN
 90
        1
 91
        1
300
_TITLE
309
CELLSTYLE_END
300
CELLSTYLE
  1
TABLEFORMAT_BEGIN
 90
        5
170
     1
 91
        0
 92
        0
 62
   257
 93
        1
300
CONTENTFORMAT
  1
CONTENTFORMAT_BEGIN
 90
        0
 91
        0
 92
        4
 93
        0
300

 40
0.0
140
1.0
 94
        5
 62
     0
340
11
144
4.5
309
CONTENTFORMAT_END
171
     1
301
MARGIN
  1
CELLMARGIN_BEGIN
 40
1.5
 40
1.5
 40
1.5
 40
1.5
 40
0.18
 40
0.18
309
CELLMARGIN_END
 94
        6
 95
        1
302
GRIDFORMAT
  1
GRIDFORMAT_BEGIN
 90
        0
 91
        1
 62
     0
 92
       -2
340
0
 93
        0
 40
0.045
309
GRIDFORMAT_END
 95
        2
302
GRIDFORMAT
  1
GRIDFORMAT_BEGIN
 90
        0
 91
        1
 62
     0
 92
       -2
340
0
 93
        0
 40
0.045
309
GRIDFORMAT_END
 95
        4
302
GRIDFORMAT
  1
GRIDFORMAT_BEGIN
 90
        0
 91
        1
 62
     0
 92
       -2
340
0
 93
        0
 40
0.045
309
GRIDFORMAT_END
 95
        8
302
GRIDFORMAT
  1
GRIDFORMAT_BEGIN
 90
        0
 91
        1
 62
     0
 92
       -2
340
0
 93
        0
 40
0.045
309
GRIDFORMAT_END
 95
       16
302
GRIDFORMAT
  1
GRIDFORMAT_BEGIN
 90
        0
 91
        1
 62
     0
 92
       -2
340
0
 93
        0
 40
0.045
309
GRIDFORMAT_END
 95
       32
302
GRIDFORMAT
  1
GRIDFORMAT_BEGIN
 90
        0
 91
        1
 62
     0
 92
       -2
340
0
 93
        0
 40
0.045
309
GRIDFORMAT_END
309
TABLEFORMAT_END
  1
CELLSTYLE_BEGIN
 90
        2
 91
        1
300
_HEADER
309
CELLSTYLE_END
300
CELLSTYLE
  1
TABLEFORMAT_BEGIN
 90
        5
170
     1
 91
        0
 92
        0
 62
   257
 93
        1
300
CONTENTFORMAT
  1
CONTENTFORMAT_BEGIN
 90
        0
 91
        0
 92
        4
 93
        0
300

 40
0.0
140
1.0
 94
        2
 62
     0
340
11
144
4.5
309
CONTENTFORMAT_END
171
     1
301
MARGIN
  1
CELLMARGIN_BEGIN
 40
1.5
 40
1.5
 40
1.5
 40
1.5
 40
0.18
 40
0.18
309
CELLMARGIN_END
 94
        6
 95
        1
302
GRIDFORMAT
  1
GRIDFORMAT_BEGIN
 90
        0
 91
        1
 62
     0
 92
       -2
340
0
 93
        0
 40
0.045
309
GRIDFORMAT_END
 95
        2
302
GRIDFORMAT
  1
GRIDFORMAT_BEGIN
 90
        0
 91
        1
 62
     0
 92
       -2
340
0
 93
        0
 40
0.045
309
GRIDFORMAT_END
 95
        4
302
GRIDFORMAT
  1
GRIDFORMAT_BEGIN
 90
        0
 91
        1
 62
     0
 92
       -2
340
0
 93
        0
 40
0.045
309
GRIDFORMAT_END
 95
        8
302
GRIDFORMAT
  1
GRIDFORMAT_BEGIN
 90
        0
 91
        1
 62
     0
 92
       -2
340
0
 93
        0
 40
0.045
309
GRIDFORMAT_END
 95
       16
302
GRIDFORMAT
  1
GRIDFORMAT_BEGIN
 90
        0
 91
        1
 62
     0
 92
       -2
340
0
 93
        0
 40
0.045
309
GRIDFORMAT_END
 95
       32
302
GRIDFORMAT
  1
GRIDFORMAT_BEGIN
 90
        0
 91
        1
 62
     0
 92
       -2
340
0
 93
        0
 40
0.045
309
GRIDFORMAT_END
309
TABLEFORMAT_END
  1
CELLSTYLE_BEGIN
 90
        3
 91
        2
300
_DATA
309
CELLSTYLE_END
  0
XRECORD
  5
2DBF4
102
{ACAD_REACTORS
330
2DBEE
102
}
330
2DBEE
100
AcDbXrecord
280
     1
102
ACAD_ROUNDTRIP_PRE2007_TABLESTYLE
 90
        4
 91
        0
  1

 92
        4
 93
        0
  2

 94
        4
 95
        0
  3

  0
XRECORD
  5
2DC03
102
{ACAD_REACTORS
330
2DC02
102
}
330
2DC02
100
AcDbXrecord
280
     1
102
RTVSPropertyOp0
 70
     1
102
RTVSPropertyOp1
 70
     1
102
RTVSPropertyOp2
 70
     1
102
RTVSPropertyOp3
 70
     1
102
RTVSPropertyOp4
 70
     1
102
RTVSPropertyOp5
 70
     1
102
RTVSPropertyOp6
 70
     1
102
RTVSPropertyOp7
 70
     1
102
RTVSPropertyOp8
 70
     1
102
RTVSPropertyOp9
 70
     1
102
RTVSPropertyOp10
 70
     1
102
RTVSPropertyOp11
 70
     1
102
RTVSPropertyOp12
 70
     1
102
RTVSPropertyOp13
 70
     1
102
RTVSPropertyOp14
 70
     1
102
RTVSPropertyOp15
 70
     1
102
RTVSPropertyOp16
 70
     1
102
RTVSPropertyOp17
 70
     1
102
RTVSPropertyOp18
 70
     1
102
RTVSPropertyOp19
 70
     1
102
RTVSPropertyOp20
 70
     1
102
RTVSPropertyOp21
 70
     1
102
RTVSPropertyOp22
 70
     1
102
RTVSPropertyOp23
 70
     1
102
RTVSPropertyOp24
 70
     1
102
RTVSPropertyOp25
 70
     1
102
RTVSPropertyOp26
 70
     1
102
RTVSPropertyOp27
 70
     1
102
RTVSPropertyOp28
 70
     1
102
RTVSPropertyOp29
 70
     1
102
RTVSPropertyOp30
 70
     1
102
RTVSPropertyOp31
 70
     1
102
RTVSPropertyOp32
 70
     1
  0
XRECORD
  5
2DC01
102
{ACAD_REACTORS
330
2DC00
102
}
330
2DC00
100
AcDbXrecord
280
     1
102
RTVSPropertyOp0
 70
     1
102
RTVSPropertyOp1
 70
     1
102
RTVSPropertyOp2
 70
     1
102
RTVSPropertyOp3
 70
     1
102
RTVSPropertyOp4
 70
     1
102
RTVSPropertyOp5
 70
     1
102
RTVSPropertyOp6
 70
     1
102
RTVSPropertyOp7
 70
     1
102
RTVSPropertyOp8
 70
     1
102
RTVSPropertyOp9
 70
     1
102
RTVSPropertyOp10
 70
     1
102
RTVSPropertyOp11
 70
     1
102
RTVSPropertyOp12
 70
     1
102
RTVSPropertyOp13
 70
     1
102
RTVSPropertyOp14
 70
     1
102
RTVSPropertyOp15
 70
     1
102
RTVSPropertyOp16
 70
     1
102
RTVSPropertyOp17
 70
     1
102
RTVSPropertyOp18
 70
     1
102
RTVSPropertyOp19
 70
     1
102
RTVSPropertyOp20
 70
     1
102
RTVSPropertyOp21
 70
     1
102
RTVSPropertyOp22
 70
     1
102
RTVSPropertyOp23
 70
     1
102
RTVSPropertyOp24
 70
     1
102
RTVSPropertyOp25
 70
     1
102
RTVSPropertyOp26
 70
     1
102
RTVSPropertyOp27
 70
     1
102
RTVSPropertyOp28
 70
     1
102
RTVSPropertyOp29
 70
     1
102
RTVSPropertyOp30
 70
     1
102
RTVSPropertyOp31
 70
     1
102
RTVSPropertyOp32
 70
     1
  0
XRECORD
  5
2DC0F
102
{ACAD_REACTORS
330
2DC0E
102
}
330
2DC0E
100
AcDbXrecord
280
     1
102
RTVSPropertyOp0
 70
     1
102
RTVSPropertyOp1
 70
     1
102
RTVSPropertyOp2
 70
     1
102
RTVSPropertyOp3
 70
     1
102
RTVSPropertyOp4
 70
     1
102
RTVSPropertyOp5
 70
     1
102
RTVSPropertyOp6
 70
     1
102
RTVSPropertyOp7
 70
     1
102
RTVSPropertyOp8
 70
     1
102
RTVSPropertyOp9
 70
     1
102
RTVSPropertyOp10
 70
     1
102
RTVSPropertyOp11
 70
     1
102
RTVSPropertyOp12
 70
     1
102
RTVSPropertyOp13
 70
     1
102
RTVSPropertyOp14
 70
     1
102
RTVSPropertyOp15
 70
     1
102
RTVSPropertyOp16
 70
     1
102
RTVSPropertyOp17
 70
     1
102
RTVSPropertyOp18
 70
     1
102
RTVSPropertyOp19
 70
     1
102
RTVSPropertyOp20
 70
     1
102
RTVSPropertyOp21
 70
     1
102
RTVSPropertyOp22
 70
     1
102
RTVSPropertyOp23
 70
     1
102
RTVSPropertyOp24
 70
     1
102
RTVSPropertyOp25
 70
     1
102
RTVSPropertyOp26
 70
     1
102
RTVSPropertyOp27
 70
     1
102
RTVSPropertyOp28
 70
     1
102
RTVSPropertyOp29
 70
     1
102
RTVSPropertyOp30
 70
     1
102
RTVSPropertyOp31
 70
     1
102
RTVSPropertyOp32
 70
     1
  0
XRECORD
  5
2DC17
102
{ACAD_REACTORS
330
2DC16
102
}
330
2DC16
100
AcDbXrecord
280
     1
102
RTVSPropertyOp0
 70
     1
102
RTVSPropertyOp1
 70
     1
102
RTVSPropertyOp2
 70
     1
102
RTVSPropertyOp3
 70
     1
102
RTVSPropertyOp4
 70
     1
102
RTVSPropertyOp5
 70
     1
102
RTVSPropertyOp6
 70
     1
102
RTVSPropertyOp7
 70
     1
102
RTVSPropertyOp8
 70
     1
102
RTVSPropertyOp9
 70
     1
102
RTVSPropertyOp10
 70
     1
102
RTVSPropertyOp11
 70
     1
102
RTVSPropertyOp12
 70
     1
102
RTVSPropertyOp13
 70
     1
102
RTVSPropertyOp14
 70
     1
102
RTVSPropertyOp15
 70
     1
102
RTVSPropertyOp16
 70
     1
102
RTVSPropertyOp17
 70
     1
102
RTVSPropertyOp18
 70
     1
102
RTVSPropertyOp19
 70
     1
102
RTVSPropertyOp20
 70
     1
102
RTVSPropertyOp21
 70
     1
102
RTVSPropertyOp22
 70
     1
102
RTVSPropertyOp23
 70
     1
102
RTVSPropertyOp24
 70
     1
102
RTVSPropertyOp25
 70
     1
102
RTVSPropertyOp26
 70
     1
102
RTVSPropertyOp27
 70
     1
102
RTVSPropertyOp28
 70
     1
102
RTVSPropertyOp29
 70
     1
102
RTVSPropertyOp30
 70
     1
102
RTVSPropertyOp31
 70
     1
102
RTVSPropertyOp32
 70
     1
  0
XRECORD
  5
2DC09
102
{ACAD_REACTORS
330
2DC08
102
}
330
2DC08
100
AcDbXrecord
280
     1
102
RTVSPropertyOp0
 70
     1
102
RTVSPropertyOp1
 70
     1
102
RTVSPropertyOp2
 70
     1
102
RTVSPropertyOp3
 70
     1
102
RTVSPropertyOp4
 70
     1
102
RTVSPropertyOp5
 70
     1
102
RTVSPropertyOp6
 70
     1
102
RTVSPropertyOp7
 70
     1
102
RTVSPropertyOp8
 70
     1
102
RTVSPropertyOp9
 70
     1
102
RTVSPropertyOp10
 70
     1
102
RTVSPropertyOp11
 70
     1
102
RTVSPropertyOp12
 70
     1
102
RTVSPropertyOp13
 70
     1
102
RTVSPropertyOp14
 70
     1
102
RTVSPropertyOp15
 70
     1
102
RTVSPropertyOp16
 70
     1
102
RTVSPropertyOp17
 70
     1
102
RTVSPropertyOp18
 70
     1
102
RTVSPropertyOp19
 70
     1
102
RTVSPropertyOp20
 70
     1
102
RTVSPropertyOp21
 70
     1
102
RTVSPropertyOp22
 70
     1
102
RTVSPropertyOp23
 70
     1
102
RTVSPropertyOp24
 70
     1
102
RTVSPropertyOp25
 70
     1
102
RTVSPropertyOp26
 70
     1
102
RTVSPropertyOp27
 70
     1
102
RTVSPropertyOp28
 70
     1
102
RTVSPropertyOp29
 70
     1
102
RTVSPropertyOp30
 70
     1
102
RTVSPropertyOp31
 70
     1
102
RTVSPropertyOp32
 70
     1
  0
XRECORD
  5
2DC0D
102
{ACAD_REACTORS
330
2DC0C
102
}
330
2DC0C
100
AcDbXrecord
280
     1
102
RTVSPropertyOp0
 70
     1
102
RTVSPropertyOp1
 70
     1
102
RTVSPropertyOp2
 70
     1
102
RTVSPropertyOp3
 70
     1
102
RTVSPropertyOp4
 70
     1
102
RTVSPropertyOp5
 70
     1
102
RTVSPropertyOp6
 70
     1
102
RTVSPropertyOp7
 70
     1
102
RTVSPropertyOp8
 70
     1
102
RTVSPropertyOp9
 70
     1
102
RTVSPropertyOp10
 70
     1
102
RTVSPropertyOp11
 70
     1
102
RTVSPropertyOp12
 70
     1
102
RTVSPropertyOp13
 70
     1
102
RTVSPropertyOp14
 70
     1
102
RTVSPropertyOp15
 70
     1
102
RTVSPropertyOp16
 70
     1
102
RTVSPropertyOp17
 70
     1
102
RTVSPropertyOp18
 70
     1
102
RTVSPropertyOp19
 70
     1
102
RTVSPropertyOp20
 70
     1
102
RTVSPropertyOp21
 70
     1
102
RTVSPropertyOp22
 70
     1
102
RTVSPropertyOp23
 70
     1
102
RTVSPropertyOp24
 70
     1
102
RTVSPropertyOp25
 70
     1
102
RTVSPropertyOp26
 70
     1
102
RTVSPropertyOp27
 70
     1
102
RTVSPropertyOp28
 70
     1
102
RTVSPropertyOp29
 70
     1
102
RTVSPropertyOp30
 70
     1
102
RTVSPropertyOp31
 70
     1
102
RTVSPropertyOp32
 70
     1
  0
XRECORD
  5
2DC27
102
{ACAD_REACTORS
330
2DC26
102
}
330
2DC26
100
AcDbXrecord
280
     1
102
RTVSPropertyOp0
 70
     0
102
RTVSPropertyOp1
 70
     0
102
RTVSPropertyOp2
 70
     0
102
RTVSPropertyOp3
 70
     0
102
RTVSPropertyOp4
 70
     0
102
RTVSPropertyOp5
 70
     0
102
RTVSPropertyOp6
 70
     0
102
RTVSPropertyOp7
 70
     0
102
RTVSPropertyOp8
 70
     0
102
RTVSPropertyOp9
 70
     0
102
RTVSPropertyOp10
 70
     0
102
RTVSPropertyOp11
 70
     0
102
RTVSPropertyOp12
 70
     0
102
RTVSPropertyOp13
 70
     0
102
RTVSPropertyOp14
 70
     2
102
RTVSPropertyOp15
 70
     0
102
RTVSPropertyOp16
 70
     0
102
RTVSPropertyOp17
 70
     0
102
RTVSPropertyOp18
 70
     0
102
RTVSPropertyOp19
 70
     0
102
RTVSPropertyOp20
 70
     0
102
RTVSPropertyOp21
 70
     0
102
RTVSPropertyOp22
 70
     0
102
RTVSPropertyOp23
 70
     0
102
RTVSPropertyOp24
 70
     0
102
RTVSPropertyOp25
 70
     0
102
RTVSPropertyOp26
 70
     0
102
RTVSPropertyOp27
 70
     0
102
RTVSPropertyOp28
 70
     0
102
RTVSPropertyOp29
 70
     0
102
RTVSPropertyOp30
 70
     0
102
RTVSPropertyOp31
 70
     0
102
RTVSPropertyOp32
 70
     0
  0
XRECORD
  5
2DC15
102
{ACAD_REACTORS
330
2DC14
102
}
330
2DC14
100
AcDbXrecord
280
     1
102
RTVSPropertyOp0
 70
     1
102
RTVSPropertyOp1
 70
     1
102
RTVSPropertyOp2
 70
     1
102
RTVSPropertyOp3
 70
     1
102
RTVSPropertyOp4
 70
     1
102
RTVSPropertyOp5
 70
     1
102
RTVSPropertyOp6
 70
     1
102
RTVSPropertyOp7
 70
     1
102
RTVSPropertyOp8
 70
     1
102
RTVSPropertyOp9
 70
     1
102
RTVSPropertyOp10
 70
     1
102
RTVSPropertyOp11
 70
     1
102
RTVSPropertyOp12
 70
     1
102
RTVSPropertyOp13
 70
     1
102
RTVSPropertyOp14
 70
     1
102
RTVSPropertyOp15
 70
     1
102
RTVSPropertyOp16
 70
     1
102
RTVSPropertyOp17
 70
     1
102
RTVSPropertyOp18
 70
     1
102
RTVSPropertyOp19
 70
     1
102
RTVSPropertyOp20
 70
     1
102
RTVSPropertyOp21
 70
     1
102
RTVSPropertyOp22
 70
     1
102
RTVSPropertyOp23
 70
     1
102
RTVSPropertyOp24
 70
     1
102
RTVSPropertyOp25
 70
     1
102
RTVSPropertyOp26
 70
     1
102
RTVSPropertyOp27
 70
     1
102
RTVSPropertyOp28
 70
     1
102
RTVSPropertyOp29
 70
     1
102
RTVSPropertyOp30
 70
     1
102
RTVSPropertyOp31
 70
     1
102
RTVSPropertyOp32
 70
     1
  0
XRECORD
  5
2DBF9
102
{ACAD_REACTORS
330
2DBF8
102
}
330
2DBF8
100
AcDbXrecord
280
     1
102
RTVSPropertyOp0
 70
     1
102
RTVSPropertyOp1
 70
     1
102
RTVSPropertyOp2
 70
     1
102
RTVSPropertyOp3
 70
     1
102
RTVSPropertyOp4
 70
     1
102
RTVSPropertyOp5
 70
     1
102
RTVSPropertyOp6
 70
     1
102
RTVSPropertyOp7
 70
     1
102
RTVSPropertyOp8
 70
     1
102
RTVSPropertyOp9
 70
     1
102
RTVSPropertyOp10
 70
     1
102
RTVSPropertyOp11
 70
     1
102
RTVSPropertyOp12
 70
     1
102
RTVSPropertyOp13
 70
     1
102
RTVSPropertyOp14
 70
     1
102
RTVSPropertyOp15
 70
     1
102
RTVSPropertyOp16
 70
     1
102
RTVSPropertyOp17
 70
     1
102
RTVSPropertyOp18
 70
     1
102
RTVSPropertyOp19
 70
     1
102
RTVSPropertyOp20
 70
     1
102
RTVSPropertyOp21
 70
     1
102
RTVSPropertyOp22
 70
     1
102
RTVSPropertyOp23
 70
     1
102
RTVSPropertyOp24
 70
     1
102
RTVSPropertyOp25
 70
     1
102
RTVSPropertyOp26
 70
     1
102
RTVSPropertyOp27
 70
     1
102
RTVSPropertyOp28
 70
     1
102
RTVSPropertyOp29
 70
     1
102
RTVSPropertyOp30
 70
     1
102
RTVSPropertyOp31
 70
     1
102
RTVSPropertyOp32
 70
     1
  0
XRECORD
  5
2DBFB
102
{ACAD_REACTORS
330
2DBFA
102
}
330
2DBFA
100
AcDbXrecord
280
     1
102
RTVSPropertyOp0
 70
     1
102
RTVSPropertyOp1
 70
     1
102
RTVSPropertyOp2
 70
     1
102
RTVSPropertyOp3
 70
     1
102
RTVSPropertyOp4
 70
     1
102
RTVSPropertyOp5
 70
     1
102
RTVSPropertyOp6
 70
     1
102
RTVSPropertyOp7
 70
     1
102
RTVSPropertyOp8
 70
     1
102
RTVSPropertyOp9
 70
     1
102
RTVSPropertyOp10
 70
     1
102
RTVSPropertyOp11
 70
     1
102
RTVSPropertyOp12
 70
     1
102
RTVSPropertyOp13
 70
     1
102
RTVSPropertyOp14
 70
     1
102
RTVSPropertyOp15
 70
     1
102
RTVSPropertyOp16
 70
     1
102
RTVSPropertyOp17
 70
     1
102
RTVSPropertyOp18
 70
     1
102
RTVSPropertyOp19
 70
     1
102
RTVSPropertyOp20
 70
     1
102
RTVSPropertyOp21
 70
     1
102
RTVSPropertyOp22
 70
     1
102
RTVSPropertyOp23
 70
     1
102
RTVSPropertyOp24
 70
     1
102
RTVSPropertyOp25
 70
     1
102
RTVSPropertyOp26
 70
     1
102
RTVSPropertyOp27
 70
     1
102
RTVSPropertyOp28
 70
     1
102
RTVSPropertyOp29
 70
     1
102
RTVSPropertyOp30
 70
     1
102
RTVSPropertyOp31
 70
     1
102
RTVSPropertyOp32
 70
     1
  0
XRECORD
  5
2DBFD
102
{ACAD_REACTORS
330
2DBFC
102
}
330
2DBFC
100
AcDbXrecord
280
     1
102
RTVSPropertyOp0
 70
     1
102
RTVSPropertyOp1
 70
     1
102
RTVSPropertyOp2
 70
     1
102
RTVSPropertyOp3
 70
     1
102
RTVSPropertyOp4
 70
     1
102
RTVSPropertyOp5
 70
     1
102
RTVSPropertyOp6
 70
     1
102
RTVSPropertyOp7
 70
     1
102
RTVSPropertyOp8
 70
     1
102
RTVSPropertyOp9
 70
     1
102
RTVSPropertyOp10
 70
     1
102
RTVSPropertyOp11
 70
     1
102
RTVSPropertyOp12
 70
     1
102
RTVSPropertyOp13
 70
     1
102
RTVSPropertyOp14
 70
     1
102
RTVSPropertyOp15
 70
     1
102
RTVSPropertyOp16
 70
     1
102
RTVSPropertyOp17
 70
     1
102
RTVSPropertyOp18
 70
     1
102
RTVSPropertyOp19
 70
     1
102
RTVSPropertyOp20
 70
     1
102
RTVSPropertyOp21
 70
     1
102
RTVSPropertyOp22
 70
     1
102
RTVSPropertyOp23
 70
     1
102
RTVSPropertyOp24
 70
     1
102
RTVSPropertyOp25
 70
     1
102
RTVSPropertyOp26
 70
     1
102
RTVSPropertyOp27
 70
     1
102
RTVSPropertyOp28
 70
     1
102
RTVSPropertyOp29
 70
     1
102
RTVSPropertyOp30
 70
     1
102
RTVSPropertyOp31
 70
     1
102
RTVSPropertyOp32
 70
     1
  0
XRECORD
  5
2DBFF
102
{ACAD_REACTORS
330
2DBFE
102
}
330
2DBFE
100
AcDbXrecord
280
     1
102
RTVSPropertyOp0
 70
     1
102
RTVSPropertyOp1
 70
     1
102
RTVSPropertyOp2
 70
     1
102
RTVSPropertyOp3
 70
     1
102
RTVSPropertyOp4
 70
     1
102
RTVSPropertyOp5
 70
     1
102
RTVSPropertyOp6
 70
     1
102
RTVSPropertyOp7
 70
     1
102
RTVSPropertyOp8
 70
     1
102
RTVSPropertyOp9
 70
     1
102
RTVSPropertyOp10
 70
     1
102
RTVSPropertyOp11
 70
     1
102
RTVSPropertyOp12
 70
     1
102
RTVSPropertyOp13
 70
     1
102
RTVSPropertyOp14
 70
     1
102
RTVSPropertyOp15
 70
     1
102
RTVSPropertyOp16
 70
     1
102
RTVSPropertyOp17
 70
     1
102
RTVSPropertyOp18
 70
     1
102
RTVSPropertyOp19
 70
     1
102
RTVSPropertyOp20
 70
     1
102
RTVSPropertyOp21
 70
     1
102
RTVSPropertyOp22
 70
     1
102
RTVSPropertyOp23
 70
     1
102
RTVSPropertyOp24
 70
     1
102
RTVSPropertyOp25
 70
     1
102
RTVSPropertyOp26
 70
     1
102
RTVSPropertyOp27
 70
     1
102
RTVSPropertyOp28
 70
     1
102
RTVSPropertyOp29
 70
     1
102
RTVSPropertyOp30
 70
     1
102
RTVSPropertyOp31
 70
     1
102
RTVSPropertyOp32
 70
     1
  0
XRECORD
  5
2DC07
102
{ACAD_REACTORS
330
2DC06
102
}
330
2DC06
100
AcDbXrecord
280
     1
102
RTVSPropertyOp0
 70
     1
102
RTVSPropertyOp1
 70
     1
102
RTVSPropertyOp2
 70
     1
102
RTVSPropertyOp3
 70
     1
102
RTVSPropertyOp4
 70
     1
102
RTVSPropertyOp5
 70
     1
102
RTVSPropertyOp6
 70
     1
102
RTVSPropertyOp7
 70
     1
102
RTVSPropertyOp8
 70
     1
102
RTVSPropertyOp9
 70
     1
102
RTVSPropertyOp10
 70
     1
102
RTVSPropertyOp11
 70
     1
102
RTVSPropertyOp12
 70
     1
102
RTVSPropertyOp13
 70
     1
102
RTVSPropertyOp14
 70
     1
102
RTVSPropertyOp15
 70
     1
102
RTVSPropertyOp16
 70
     1
102
RTVSPropertyOp17
 70
     1
102
RTVSPropertyOp18
 70
     1
102
RTVSPropertyOp19
 70
     1
102
RTVSPropertyOp20
 70
     1
102
RTVSPropertyOp21
 70
     1
102
RTVSPropertyOp22
 70
     1
102
RTVSPropertyOp23
 70
     1
102
RTVSPropertyOp24
 70
     1
102
RTVSPropertyOp25
 70
     1
102
RTVSPropertyOp26
 70
     1
102
RTVSPropertyOp27
 70
     1
102
RTVSPropertyOp28
 70
     1
102
RTVSPropertyOp29
 70
     1
102
RTVSPropertyOp30
 70
     1
102
RTVSPropertyOp31
 70
     1
102
RTVSPropertyOp32
 70
     1
  0
XRECORD
  5
2DC23
102
{ACAD_REACTORS
330
2DC22
102
}
330
2DC22
100
AcDbXrecord
280
     1
102
RTVSPropertyOp0
 70
     0
102
RTVSPropertyOp1
 70
     0
102
RTVSPropertyOp2
 70
     0
102
RTVSPropertyOp3
 70
     0
102
RTVSPropertyOp4
 70
     0
102
RTVSPropertyOp5
 70
     0
102
RTVSPropertyOp6
 70
     0
102
RTVSPropertyOp7
 70
     0
102
RTVSPropertyOp8
 70
     0
102
RTVSPropertyOp9
 70
     0
102
RTVSPropertyOp10
 70
     0
102
RTVSPropertyOp11
 70
     0
102
RTVSPropertyOp12
 70
     0
102
RTVSPropertyOp13
 70
     0
102
RTVSPropertyOp14
 70
     2
102
RTVSPropertyOp15
 70
     0
102
RTVSPropertyOp16
 70
     0
102
RTVSPropertyOp17
 70
     0
102
RTVSPropertyOp18
 70
     0
102
RTVSPropertyOp19
 70
     0
102
RTVSPropertyOp20
 70
     0
102
RTVSPropertyOp21
 70
     0
102
RTVSPropertyOp22
 70
     0
102
RTVSPropertyOp23
 70
     0
102
RTVSPropertyOp24
 70
     0
102
RTVSPropertyOp25
 70
     0
102
RTVSPropertyOp26
 70
     0
102
RTVSPropertyOp27
 70
     0
102
RTVSPropertyOp28
 70
     0
102
RTVSPropertyOp29
 70
     0
102
RTVSPropertyOp30
 70
     0
102
RTVSPropertyOp31
 70
     0
102
RTVSPropertyOp32
 70
     0
  0
XRECORD
  5
2DC13
102
{ACAD_REACTORS
330
2DC12
102
}
330
2DC12
100
AcDbXrecord
280
     1
102
RTVSPropertyOp0
 70
     1
102
RTVSPropertyOp1
 70
     1
102
RTVSPropertyOp2
 70
     1
102
RTVSPropertyOp3
 70
     1
102
RTVSPropertyOp4
 70
     1
102
RTVSPropertyOp5
 70
     1
102
RTVSPropertyOp6
 70
     1
102
RTVSPropertyOp7
 70
     1
102
RTVSPropertyOp8
 70
     1
102
RTVSPropertyOp9
 70
     1
102
RTVSPropertyOp10
 70
     1
102
RTVSPropertyOp11
 70
     1
102
RTVSPropertyOp12
 70
     1
102
RTVSPropertyOp13
 70
     1
102
RTVSPropertyOp14
 70
     1
102
RTVSPropertyOp15
 70
     1
102
RTVSPropertyOp16
 70
     1
102
RTVSPropertyOp17
 70
     1
102
RTVSPropertyOp18
 70
     1
102
RTVSPropertyOp19
 70
     1
102
RTVSPropertyOp20
 70
     1
102
RTVSPropertyOp21
 70
     1
102
RTVSPropertyOp22
 70
     1
102
RTVSPropertyOp23
 70
     1
102
RTVSPropertyOp24
 70
     1
102
RTVSPropertyOp25
 70
     1
102
RTVSPropertyOp26
 70
     1
102
RTVSPropertyOp27
 70
     1
102
RTVSPropertyOp28
 70
     1
102
RTVSPropertyOp29
 70
     1
102
RTVSPropertyOp30
 70
     1
102
RTVSPropertyOp31
 70
     1
102
RTVSPropertyOp32
 70
     1
  0
XRECORD
  5
2DC25
102
{ACAD_REACTORS
330
2DC24
102
}
330
2DC24
100
AcDbXrecord
280
     1
102
RTVSPropertyOp0
 70
     0
102
RTVSPropertyOp1
 70
     0
102
RTVSPropertyOp2
 70
     0
102
RTVSPropertyOp3
 70
     0
102
RTVSPropertyOp4
 70
     0
102
RTVSPropertyOp5
 70
     0
102
RTVSPropertyOp6
 70
     0
102
RTVSPropertyOp7
 70
     0
102
RTVSPropertyOp8
 70
     0
102
RTVSPropertyOp9
 70
     0
102
RTVSPropertyOp10
 70
     0
102
RTVSPropertyOp11
 70
     0
102
RTVSPropertyOp12
 70
     0
102
RTVSPropertyOp13
 70
     0
102
RTVSPropertyOp14
 70
     2
102
RTVSPropertyOp15
 70
     0
102
RTVSPropertyOp16
 70
     0
102
RTVSPropertyOp17
 70
     0
102
RTVSPropertyOp18
 70
     0
102
RTVSPropertyOp19
 70
     0
102
RTVSPropertyOp20
 70
     0
102
RTVSPropertyOp21
 70
     0
102
RTVSPropertyOp22
 70
     0
102
RTVSPropertyOp23
 70
     0
102
RTVSPropertyOp24
 70
     0
102
RTVSPropertyOp25
 70
     0
102
RTVSPropertyOp26
 70
     0
102
RTVSPropertyOp27
 70
     0
102
RTVSPropertyOp28
 70
     0
102
RTVSPropertyOp29
 70
     0
102
RTVSPropertyOp30
 70
     0
102
RTVSPropertyOp31
 70
     0
102
RTVSPropertyOp32
 70
     0
  0
XRECORD
  5
2DC0B
102
{ACAD_REACTORS
330
2DC0A
102
}
330
2DC0A
100
AcDbXrecord
280
     1
102
RTVSPropertyOp0
 70
     1
102
RTVSPropertyOp1
 70
     1
102
RTVSPropertyOp2
 70
     1
102
RTVSPropertyOp3
 70
     1
102
RTVSPropertyOp4
 70
     1
102
RTVSPropertyOp5
 70
     1
102
RTVSPropertyOp6
 70
     1
102
RTVSPropertyOp7
 70
     1
102
RTVSPropertyOp8
 70
     1
102
RTVSPropertyOp9
 70
     1
102
RTVSPropertyOp10
 70
     1
102
RTVSPropertyOp11
 70
     1
102
RTVSPropertyOp12
 70
     1
102
RTVSPropertyOp13
 70
     1
102
RTVSPropertyOp14
 70
     1
102
RTVSPropertyOp15
 70
     1
102
RTVSPropertyOp16
 70
     1
102
RTVSPropertyOp17
 70
     1
102
RTVSPropertyOp18
 70
     1
102
RTVSPropertyOp19
 70
     1
102
RTVSPropertyOp20
 70
     1
102
RTVSPropertyOp21
 70
     1
102
RTVSPropertyOp22
 70
     1
102
RTVSPropertyOp23
 70
     1
102
RTVSPropertyOp24
 70
     1
102
RTVSPropertyOp25
 70
     1
102
RTVSPropertyOp26
 70
     1
102
RTVSPropertyOp27
 70
     1
102
RTVSPropertyOp28
 70
     1
102
RTVSPropertyOp29
 70
     1
102
RTVSPropertyOp30
 70
     1
102
RTVSPropertyOp31
 70
     1
102
RTVSPropertyOp32
 70
     1
  0
XRECORD
  5
2DC21
102
{ACAD_REACTORS
330
2DC20
102
}
330
2DC20
100
AcDbXrecord
280
     1
102
RTVSPropertyOp0
 70
     1
102
RTVSPropertyOp1
 70
     1
102
RTVSPropertyOp2
 70
     1
102
RTVSPropertyOp3
 70
     1
102
RTVSPropertyOp4
 70
     1
102
RTVSPropertyOp5
 70
     1
102
RTVSPropertyOp6
 70
     1
102
RTVSPropertyOp7
 70
     1
102
RTVSPropertyOp8
 70
     1
102
RTVSPropertyOp9
 70
     1
102
RTVSPropertyOp10
 70
     1
102
RTVSPropertyOp11
 70
     1
102
RTVSPropertyOp12
 70
     1
102
RTVSPropertyOp13
 70
     1
102
RTVSPropertyOp14
 70
     1
102
RTVSPropertyOp15
 70
     1
102
RTVSPropertyOp16
 70
     1
102
RTVSPropertyOp17
 70
     1
102
RTVSPropertyOp18
 70
     1
102
RTVSPropertyOp19
 70
     1
102
RTVSPropertyOp20
 70
     1
102
RTVSPropertyOp21
 70
     1
102
RTVSPropertyOp22
 70
     1
102
RTVSPropertyOp23
 70
     1
102
RTVSPropertyOp24
 70
     1
102
RTVSPropertyOp25
 70
     1
102
RTVSPropertyOp26
 70
     1
102
RTVSPropertyOp27
 70
     1
102
RTVSPropertyOp28
 70
     1
102
RTVSPropertyOp29
 70
     1
102
RTVSPropertyOp30
 70
     1
102
RTVSPropertyOp31
 70
     1
102
RTVSPropertyOp32
 70
     1
  0
XRECORD
  5
2DC1F
102
{ACAD_REACTORS
330
2DC1E
102
}
330
2DC1E
100
AcDbXrecord
280
     1
102
RTVSPropertyOp0
 70
     1
102
RTVSPropertyOp1
 70
     1
102
RTVSPropertyOp2
 70
     1
102
RTVSPropertyOp3
 70
     1
102
RTVSPropertyOp4
 70
     1
102
RTVSPropertyOp5
 70
     1
102
RTVSPropertyOp6
 70
     1
102
RTVSPropertyOp7
 70
     1
102
RTVSPropertyOp8
 70
     1
102
RTVSPropertyOp9
 70
     1
102
RTVSPropertyOp10
 70
     1
102
RTVSPropertyOp11
 70
     1
102
RTVSPropertyOp12
 70
     1
102
RTVSPropertyOp13
 70
     1
102
RTVSPropertyOp14
 70
     1
102
RTVSPropertyOp15
 70
     1
102
RTVSPropertyOp16
 70
     1
102
RTVSPropertyOp17
 70
     1
102
RTVSPropertyOp18
 70
     1
102
RTVSPropertyOp19
 70
     1
102
RTVSPropertyOp20
 70
     1
102
RTVSPropertyOp21
 70
     1
102
RTVSPropertyOp22
 70
     1
102
RTVSPropertyOp23
 70
     1
102
RTVSPropertyOp24
 70
     1
102
RTVSPropertyOp25
 70
     1
102
RTVSPropertyOp26
 70
     1
102
RTVSPropertyOp27
 70
     1
102
RTVSPropertyOp28
 70
     1
102
RTVSPropertyOp29
 70
     1
102
RTVSPropertyOp30
 70
     1
102
RTVSPropertyOp31
 70
     1
102
RTVSPropertyOp32
 70
     1
  0
XRECORD
  5
2DC19
102
{ACAD_REACTORS
330
2DC18
102
}
330
2DC18
100
AcDbXrecord
280
     1
102
RTVSPropertyOp0
 70
     1
102
RTVSPropertyOp1
 70
     1
102
RTVSPropertyOp2
 70
     1
102
RTVSPropertyOp3
 70
     1
102
RTVSPropertyOp4
 70
     1
102
RTVSPropertyOp5
 70
     1
102
RTVSPropertyOp6
 70
     1
102
RTVSPropertyOp7
 70
     1
102
RTVSPropertyOp8
 70
     1
102
RTVSPropertyOp9
 70
     1
102
RTVSPropertyOp10
 70
     1
102
RTVSPropertyOp11
 70
     1
102
RTVSPropertyOp12
 70
     1
102
RTVSPropertyOp13
 70
     1
102
RTVSPropertyOp14
 70
     1
102
RTVSPropertyOp15
 70
     1
102
RTVSPropertyOp16
 70
     1
102
RTVSPropertyOp17
 70
     1
102
RTVSPropertyOp18
 70
     1
102
RTVSPropertyOp19
 70
     1
102
RTVSPropertyOp20
 70
     1
102
RTVSPropertyOp21
 70
     1
102
RTVSPropertyOp22
 70
     1
102
RTVSPropertyOp23
 70
     1
102
RTVSPropertyOp24
 70
     1
102
RTVSPropertyOp25
 70
     1
102
RTVSPropertyOp26
 70
     1
102
RTVSPropertyOp27
 70
     1
102
RTVSPropertyOp28
 70
     1
102
RTVSPropertyOp29
 70
     1
102
RTVSPropertyOp30
 70
     1
102
RTVSPropertyOp31
 70
     1
102
RTVSPropertyOp32
 70
     1
  0
XRECORD
  5
2DC1B
102
{ACAD_REACTORS
330
2DC1A
102
}
330
2DC1A
100
AcDbXrecord
280
     1
102
RTVSPropertyOp0
 70
     1
102
RTVSPropertyOp1
 70
     1
102
RTVSPropertyOp2
 70
     1
102
RTVSPropertyOp3
 70
     1
102
RTVSPropertyOp4
 70
     1
102
RTVSPropertyOp5
 70
     1
102
RTVSPropertyOp6
 70
     1
102
RTVSPropertyOp7
 70
     1
102
RTVSPropertyOp8
 70
     1
102
RTVSPropertyOp9
 70
     1
102
RTVSPropertyOp10
 70
     1
102
RTVSPropertyOp11
 70
     1
102
RTVSPropertyOp12
 70
     1
102
RTVSPropertyOp13
 70
     1
102
RTVSPropertyOp14
 70
     1
102
RTVSPropertyOp15
 70
     1
102
RTVSPropertyOp16
 70
     1
102
RTVSPropertyOp17
 70
     1
102
RTVSPropertyOp18
 70
     1
102
RTVSPropertyOp19
 70
     1
102
RTVSPropertyOp20
 70
     1
102
RTVSPropertyOp21
 70
     1
102
RTVSPropertyOp22
 70
     1
102
RTVSPropertyOp23
 70
     1
102
RTVSPropertyOp24
 70
     1
102
RTVSPropertyOp25
 70
     1
102
RTVSPropertyOp26
 70
     1
102
RTVSPropertyOp27
 70
     1
102
RTVSPropertyOp28
 70
     1
102
RTVSPropertyOp29
 70
     1
102
RTVSPropertyOp30
 70
     1
102
RTVSPropertyOp31
 70
     1
102
RTVSPropertyOp32
 70
     1
  0
XRECORD
  5
2DC11
102
{ACAD_REACTORS
330
2DC10
102
}
330
2DC10
100
AcDbXrecord
280
     1
102
RTVSPropertyOp0
 70
     1
102
RTVSPropertyOp1
 70
     1
102
RTVSPropertyOp2
 70
     1
102
RTVSPropertyOp3
 70
     1
102
RTVSPropertyOp4
 70
     1
102
RTVSPropertyOp5
 70
     1
102
RTVSPropertyOp6
 70
     1
102
RTVSPropertyOp7
 70
     1
102
RTVSPropertyOp8
 70
     1
102
RTVSPropertyOp9
 70
     1
102
RTVSPropertyOp10
 70
     1
102
RTVSPropertyOp11
 70
     1
102
RTVSPropertyOp12
 70
     1
102
RTVSPropertyOp13
 70
     1
102
RTVSPropertyOp14
 70
     1
102
RTVSPropertyOp15
 70
     1
102
RTVSPropertyOp16
 70
     1
102
RTVSPropertyOp17
 70
     1
102
RTVSPropertyOp18
 70
     1
102
RTVSPropertyOp19
 70
     1
102
RTVSPropertyOp20
 70
     1
102
RTVSPropertyOp21
 70
     1
102
RTVSPropertyOp22
 70
     1
102
RTVSPropertyOp23
 70
     1
102
RTVSPropertyOp24
 70
     1
102
RTVSPropertyOp25
 70
     1
102
RTVSPropertyOp26
 70
     1
102
RTVSPropertyOp27
 70
     1
102
RTVSPropertyOp28
 70
     1
102
RTVSPropertyOp29
 70
     1
102
RTVSPropertyOp30
 70
     1
102
RTVSPropertyOp31
 70
     1
102
RTVSPropertyOp32
 70
     1
  0
XRECORD
  5
2DC05
102
{ACAD_REACTORS
330
2DC04
102
}
330
2DC04
100
AcDbXrecord
280
     1
102
RTVSPropertyOp0
 70
     1
102
RTVSPropertyOp1
 70
     1
102
RTVSPropertyOp2
 70
     1
102
RTVSPropertyOp3
 70
     1
102
RTVSPropertyOp4
 70
     1
102
RTVSPropertyOp5
 70
     1
102
RTVSPropertyOp6
 70
     1
102
RTVSPropertyOp7
 70
     1
102
RTVSPropertyOp8
 70
     1
102
RTVSPropertyOp9
 70
     1
102
RTVSPropertyOp10
 70
     1
102
RTVSPropertyOp11
 70
     1
102
RTVSPropertyOp12
 70
     1
102
RTVSPropertyOp13
 70
     1
102
RTVSPropertyOp14
 70
     1
102
RTVSPropertyOp15
 70
     1
102
RTVSPropertyOp16
 70
     1
102
RTVSPropertyOp17
 70
     1
102
RTVSPropertyOp18
 70
     1
102
RTVSPropertyOp19
 70
     1
102
RTVSPropertyOp20
 70
     1
102
RTVSPropertyOp21
 70
     1
102
RTVSPropertyOp22
 70
     1
102
RTVSPropertyOp23
 70
     1
102
RTVSPropertyOp24
 70
     1
102
RTVSPropertyOp25
 70
     1
102
RTVSPropertyOp26
 70
     1
102
RTVSPropertyOp27
 70
     1
102
RTVSPropertyOp28
 70
     1
102
RTVSPropertyOp29
 70
     1
102
RTVSPropertyOp30
 70
     1
102
RTVSPropertyOp31
 70
     1
102
RTVSPropertyOp32
 70
     1
  0
XRECORD
  5
2DC1D
102
{ACAD_REACTORS
330
2DC1C
102
}
330
2DC1C
100
AcDbXrecord
280
     1
102
RTVSPropertyOp0
 70
     1
102
RTVSPropertyOp1
 70
     1
102
RTVSPropertyOp2
 70
     1
102
RTVSPropertyOp3
 70
     1
102
RTVSPropertyOp4
 70
     1
102
RTVSPropertyOp5
 70
     1
102
RTVSPropertyOp6
 70
     1
102
RTVSPropertyOp7
 70
     1
102
RTVSPropertyOp8
 70
     1
102
RTVSPropertyOp9
 70
     1
102
RTVSPropertyOp10
 70
     1
102
RTVSPropertyOp11
 70
     1
102
RTVSPropertyOp12
 70
     1
102
RTVSPropertyOp13
 70
     1
102
RTVSPropertyOp14
 70
     1
102
RTVSPropertyOp15
 70
     1
102
RTVSPropertyOp16
 70
     1
102
RTVSPropertyOp17
 70
     1
102
RTVSPropertyOp18
 70
     1
102
RTVSPropertyOp19
 70
     1
102
RTVSPropertyOp20
 70
     1
102
RTVSPropertyOp21
 70
     1
102
RTVSPropertyOp22
 70
     1
102
RTVSPropertyOp23
 70
     1
102
RTVSPropertyOp24
 70
     1
102
RTVSPropertyOp25
 70
     1
102
RTVSPropertyOp26
 70
     1
102
RTVSPropertyOp27
 70
     1
102
RTVSPropertyOp28
 70
     1
102
RTVSPropertyOp29
 70
     1
102
RTVSPropertyOp30
 70
     1
102
RTVSPropertyOp31
 70
     1
102
RTVSPropertyOp32
 70
     1
  0
ENDSEC
  0
EOF
